<?xml version="1.0" standalone="no"?>
<!DOCTYPE svg PUBLIC "-//W3C//DTD SVG 1.1//EN" "http://www.w3.org/Graphics/SVG/1.1/DTD/svg11.dtd" >
<svg xmlns="http://www.w3.org/2000/svg" xmlns:xlink="http://www.w3.org/1999/xlink" version="1.1">
<metadata>
Created by FontForge 20201107 at Wed May 26 14:57:55 2010
 By 
Copyright (c) 2009 by studio kmzero. All rights reserved.
</metadata>
<defs>
<font id="bubbleboddy-Fat" horiz-adv-x="261" >
  <font-face 
    font-family="bubbleboddy"
    font-weight="1000"
    font-stretch="normal"
    units-per-em="1000"
    panose-1="2 0 5 6 0 0 0 2 0 4"
    ascent="800"
    descent="-200"
    x-height="482"
    cap-height="630"
    bbox="-77 -257 1044 1007"
    underline-thickness="50"
    underline-position="-100"
    unicode-range="U+0020-2122"
  />
<missing-glyph horiz-adv-x="225" 
 />
    <glyph glyph-name=".notdef" horiz-adv-x="225" 
 />
    <glyph glyph-name=".null" horiz-adv-x="0" 
 />
    <glyph glyph-name="nonmarkingreturn" horiz-adv-x="333" 
 />
    <glyph glyph-name="space" unicode=" " horiz-adv-x="225" 
 />
    <glyph glyph-name="exclam" unicode="!" horiz-adv-x="263" 
d="M37 581q0 40 27 67t67 27q39 0 66.5 -27t27.5 -67v-354q0 -20 -7.5 -37t-20 -29.5t-30 -20t-36.5 -7.5q-40 0 -67 27.5t-27 66.5v354zM37 0q0 40 27 66t67 26q39 0 66.5 -26t27.5 -66q0 -39 -27.5 -65.5t-66.5 -26.5q-40 0 -67 26.5t-27 65.5z" />
    <glyph glyph-name="quotedbl" unicode="&#x22;" horiz-adv-x="483" 
d="M35 552q0 18 8 33.5t21 27t30 18t36 6.5q18 0 35 -6.5t30.5 -18t21.5 -26.5t8 -32l-11 -78q-6 -39 -25.5 -66.5t-58.5 -27.5q-40 0 -58 27.5t-26 66.5zM266 551q0 18 7.5 33.5t20.5 27.5t30 18.5t36 6.5q18 0 35 -6.5t30.5 -18t21.5 -26.5t8 -32l-11 -78
q-6 -40 -25.5 -67t-58.5 -27q-40 0 -58 25.5t-26 68.5z" />
    <glyph glyph-name="numbersign" unicode="#" horiz-adv-x="756" 
d="M529 78q-4 -20 -14.5 -35t-25.5 -24.5t-33.5 -13t-38.5 0.5q-38 8 -59 40t-13 72v3h-44l-9 -43q-4 -20 -14.5 -35t-25.5 -24.5t-33.5 -13t-38.5 0.5q-38 8 -59 40t-13 72v3q-36 4 -60 30.5t-24 63.5q0 40 27 67t67 27h31l6 30q-37 3 -61.5 29.5t-24.5 64.5q0 40 27 67
t67 27h33l9 42q4 19 14.5 34t25.5 25t33.5 13.5t37.5 -0.5q20 -4 35.5 -15t25 -26t12.5 -33t-1 -37l-1 -3h46l9 42q4 19 14.5 34t25.5 25t33.5 13.5t37.5 -0.5q20 -4 35.5 -15t25 -26t12.5 -33t-1 -37l-1 -3q37 -3 62 -29.5t25 -64.5q0 -20 -7.5 -37t-20 -29.5t-30 -20
t-36.5 -7.5h-33l-6 -30q37 -2 62.5 -29t25.5 -65q0 -20 -7.5 -37t-20 -29.5t-30 -20t-36.5 -7.5h-34zM341 309h45l6 30h-45z" />
    <glyph glyph-name="dollar" unicode="$" horiz-adv-x="538" 
d="M55 455q5 55 38 97.5t92 62.5q1 38 28 65t66 27q19 0 36.5 -7.5t30 -20t20 -30t7.5 -36.5v-5q26 -11 48.5 -26t38.5 -34q12 -14 17.5 -31.5t4.5 -36t-7.5 -35.5t-19.5 -30q-14 -14 -32 -20.5t-37 -7t-37.5 5.5t-33.5 18q-6 5 -10 12.5t-8.5 14.5t-11.5 12t-19 5
q-15 0 -23 -4.5t-9 -11t4 -13.5t14 -12l111 -63q44 -21 72 -46t42.5 -50.5t17.5 -51t-3 -48.5q-11 -52 -44.5 -84.5t-74.5 -49.5q-2 -38 -29 -63t-65 -25q-35 0 -61 22t-32 55q-21 5 -36.5 13.5t-27.5 17.5q-21 16 -37.5 36.5t-24.5 43t-5 45t20 42.5q9 11 26.5 19t38 9
t42 -7.5t39.5 -30.5q14 -18 31 -20.5t25 -0.5q16 3 17 19t-17 27q-19 12 -58.5 32.5t-91.5 45.5q-11 5 -25.5 14.5t-26 27t-18 44.5t-2.5 68z" />
    <glyph glyph-name="percent" unicode="%" horiz-adv-x="761" 
d="M400 67q-12 -38 -46 -55.5t-72 -5.5q-18 6 -32.5 18t-22.5 27.5t-10 34.5t4 38l140 440q6 18 18 32.5t28 22.5t34.5 10t37.5 -4t33 -18t22.5 -28t10 -34.5t-4.5 -37.5zM19 493q0 28 10.5 53t29 44t43 29.5t53.5 10.5q28 0 53 -10.5t44 -29.5t29.5 -44t10.5 -53
q0 -29 -10.5 -53.5t-29.5 -43t-44 -29t-53 -10.5q-29 0 -53.5 10.5t-43 29t-29 43t-10.5 53.5zM145 493q0 -12 10 -12t10 12t-10 12t-10 -12zM470 136q0 28 10.5 53t29 44t43 29.5t53.5 10.5q28 0 53 -10.5t44 -29.5t29.5 -44t10.5 -53q0 -29 -10.5 -53.5t-29.5 -43t-44 -29
t-53 -10.5q-29 0 -53.5 10.5t-43 29t-29 43t-10.5 53.5zM596 136q0 -12 10 -12t10 12t-10 12t-10 -12z" />
    <glyph glyph-name="ampersand" unicode="&#x26;" horiz-adv-x="587" 
d="M243 447q0 -16 14 -16h29v1q0 16 7 31t20 27t30 19t37 7q19 0 36.5 -7t30 -19t20 -27t7.5 -31v-1h13q12 0 25 -4t24 -12t18 -21.5t7 -33.5t-6.5 -38.5t-17 -32.5t-24 -23t-26.5 -9h-13v-163q0 -40 -27.5 -67t-66.5 -27h-123q-46 0 -86.5 17.5t-70.5 48t-47.5 71
t-17.5 86.5q0 42 14 76.5t38 60.5q-20 40 -20 87q0 39 14.5 73.5t40 60t59 40.5t72.5 16h4q36 0 51.5 -20.5t15.5 -56.5q0 -18 -6.5 -35.5t-16 -31t-21.5 -22t-23 -8.5q-14 0 -14 -16zM223 223q0 -14 10 -24.5t24 -10.5h29v69h-29q-14 0 -24 -10t-10 -24z" />
    <glyph glyph-name="quotesingle" unicode="'" horiz-adv-x="251" 
d="M31 543q0 39 27 66.5t67 27.5q19 0 36.5 -7.5t30 -20t20 -30t7.5 -36.5v-67q0 -40 -27.5 -67t-66.5 -27q-40 0 -67 27t-27 67v67z" />
    <glyph glyph-name="parenleft" unicode="(" horiz-adv-x="360" 
d="M326 -59q0 -39 -27.5 -63.5t-66.5 -24.5h-4q-41 1 -76.5 17t-61.5 43t-41.5 63t-15.5 77v388q1 40 17 76t43 62.5t62.5 42t76.5 15.5q39 0 66.5 -24.5t27.5 -63.5q0 -20 -7.5 -38t-20 -32t-30 -22.5t-36.5 -8.5h-2q-9 -2 -9 -11v-384q0 -11 11 -11q19 0 36.5 -8.5
t30 -22.5t20 -32.5t7.5 -37.5z" />
    <glyph glyph-name="parenright" unicode=")" horiz-adv-x="361" 
d="M34 -57q0 19 7.5 37t20 32t29.5 22t37 8q11 0 11 11v384q0 9 -9 11h-2q-20 0 -37 8.5t-29.5 22.5t-20 32t-7.5 38q0 39 27.5 63.5t66.5 24.5q40 0 76 -15.5t63 -42t43 -62.5t17 -76v-388q0 -41 -15.5 -77t-41.5 -63t-62 -43t-76 -17h-4q-39 0 -66.5 25.5t-27.5 64.5z" />
    <glyph glyph-name="asterisk" unicode="*" horiz-adv-x="429" 
d="M215 287q-27 0 -48.5 18.5t-33.5 41.5q-29 -7 -58 -1t-46 35q-19 32 -6 64.5t43 53.5q-25 22 -35.5 53.5t4.5 62.5q17 34 45.5 41t57.5 0q13 18 30 33.5t47 15.5q28 0 46.5 -15t29.5 -34q29 6 57.5 -2t44.5 -40q15 -30 4 -60.5t-35 -53.5q15 -10 26 -24t17 -29.5t5 -32
t-10 -32.5q-17 -28 -45 -35t-57 -1q-12 -22 -34 -40.5t-49 -18.5z" />
    <glyph glyph-name="plus" unicode="+" horiz-adv-x="427" 
d="M307 200q0 -39 -27 -66.5t-67 -27.5q-20 0 -38.5 7.5t-32.5 20.5t-21 30t-2 36l2 8l-8 -2q-20 -5 -37 2t-29.5 21t-20 32.5t-7.5 38.5t7.5 39t20.5 33t30 20.5t36 1.5l8 -2l-2 9q-4 19 3 36t20.5 30t32 20.5t38.5 7.5t38.5 -7.5t32.5 -20.5t20.5 -30t2.5 -36l-2 -9l9 2
q19 4 36 -2.5t30 -20.5t20.5 -32.5t7.5 -38.5t-8 -38.5t-21 -32t-30 -20.5t-35 -3l-9 2z" />
    <glyph glyph-name="comma" unicode="," horiz-adv-x="243" 
d="M27 92q0 39 27 65.5t67 26.5q19 0 36.5 -7t30.5 -19.5t20 -29.5t7 -36q-1 -30 -13 -58.5t-31.5 -50.5t-43.5 -36t-49 -15q-20 -1 -30.5 16.5t-15 42.5t-5 53t-0.5 48z" />
    <glyph glyph-name="hyphen" unicode="-" horiz-adv-x="457" 
d="M329 395q39 0 66.5 -27t27.5 -67q0 -20 -7.5 -37t-20 -29.5t-30 -20t-36.5 -7.5h-201q-40 0 -67 27.5t-27 66.5q0 40 27 67t67 27h201z" />
    <glyph glyph-name="period" unicode="." horiz-adv-x="244" 
d="M28 92q0 39 27 65.5t67 26.5q39 0 66.5 -26.5t27.5 -65.5q0 -40 -27.5 -66t-66.5 -26q-40 0 -67 26t-27 66z" />
    <glyph glyph-name="slash" unicode="/" horiz-adv-x="572" 
d="M213 -123q-17 -37 -49 -54t-70 -5q-18 6 -33 18t-24 28t-10.5 34.5t7.5 35.5l330 630q18 35 51.5 52.5t71.5 5.5q19 -6 33 -18t22 -28t8.5 -33.5t-7.5 -35.5z" />
    <glyph glyph-name="zero" unicode="0" horiz-adv-x="540" 
d="M28 242q0 50 19 94t52 77t77 52t94 19t94 -19t77 -52t52 -77t19 -94t-19 -94t-52 -77t-77 -52t-94 -19t-94 19t-77 52t-52 77t-19 94zM219 242q0 -23 14 -38.5t37 -15.5t37 15.5t14 38.5t-14 38.5t-37 15.5t-37 -15.5t-14 -38.5z" />
    <glyph glyph-name="one" unicode="1" horiz-adv-x="335" 
d="M144 456q28 28 66.5 28.5t66.5 -28.5q12 -12 20 -29t8 -37v-296q0 -40 -27.5 -67t-66.5 -27q-40 0 -67 27t-27 67v154q-1 7 -8 7h-17.5t-21.5 1.5t-20 11.5q-26 29 -19 55t35 55z" />
    <glyph glyph-name="two" unicode="2" horiz-adv-x="532" 
d="M44 92q0 24 17 47t42 44t54.5 40t54.5 35.5t41 30t16 23.5q-1 11 -7.5 12.5t-15.5 -3t-19 -14.5t-18 -23q-16 -24 -41 -31t-50 0.5t-43.5 28.5t-21.5 53q-2 29 13 55.5t40 44.5q21 12 46 23q21 9 49 16.5t60 9.5q50 1 86 -6t61 -20t39.5 -30.5t22.5 -36.5
q9 -24 8.5 -45.5t-8 -40.5t-20.5 -35.5t-28 -29.5q-35 -32 -86 -56q13 -4 25 -1t35 3q19 0 36 -7t29.5 -20t19.5 -30t7 -36t-7 -36t-19.5 -29.5t-29.5 -20t-36 -7.5h-260q-20 0 -36.5 7t-29 19.5t-19.5 29.5t-7 36z" />
    <glyph glyph-name="three" unicode="3" horiz-adv-x="550" 
d="M392 490q30 0 53.5 -19t34.5 -45.5t7 -55.5t-31 -48l-65 -48q37 -12 63 -39t41 -62.5t17 -75.5t-9 -77q-14 -48 -44.5 -85t-71 -59t-88 -28t-95.5 8q-31 9 -55.5 24.5t-42.5 30.5q-21 18 -37 38q-19 27 -28 51t-1 52q11 38 39.5 53t66.5 4q29 -8 48 -31q8 -10 25 -25
t37 -21q22 -5 41.5 7.5t25.5 33.5q6 22 -3.5 45t-30.5 30q-20 6 -42.5 0.5t-34.5 -9.5q-27 -9 -57 -1q-38 11 -47 37t6 62q5 12 19.5 22t31.5 17.5t32.5 13.5t23.5 12h-89q-40 0 -67 27.5t-27 66.5q0 40 27 67t67 27h260z" />
    <glyph glyph-name="four" unicode="4" horiz-adv-x="551" 
d="M427 188q19 0 38 -5.5t33.5 -16.5t23.5 -26.5t9 -35.5t-7.5 -38.5t-20 -33t-30 -23.5t-36.5 -9v-53q0 -40 -27.5 -67t-66.5 -27q-40 0 -67 27t-27 67v53h-78.5h-43t-19 0.5t-7.5 0.5q-20 3 -36.5 13t-27.5 24.5t-15.5 32.5t0.5 37l75 299q3 19 13 34.5t24.5 26t32.5 15
t37 1.5t35 -12.5t27 -24t15.5 -33t1.5 -37.5l-48 -189h24q0 39 22 66.5t62 27.5q39 0 61.5 -27.5t22.5 -66.5z" />
    <glyph glyph-name="five" unicode="5" horiz-adv-x="547" 
d="M505 95q0 -50 -19 -94t-51.5 -76.5t-76.5 -52t-94 -19.5q-32 0 -60.5 7t-49.5 15q-26 10 -46 22q-26 17 -41.5 43t-15.5 55q0 39 23 62t63 23q30 0 55 -17q11 -7 31.5 -16.5t40.5 -9.5q23 1 38 18t15 40q0 22 -15 39.5t-38 18.5q-20 0 -40.5 -9.5t-31.5 -16.5
q-25 -17 -55 -17q-40 0 -63 22.5t-23 60.5l-1 190q-1 18 -5 36t-2.5 32.5t13.5 23.5t45 9h279q39 0 66.5 -24t27.5 -60q0 -20 -7.5 -37t-20 -29.5t-30 -20t-36.5 -7.5h-142v-23q8 2 12.5 3t11.5 2q51 4 95.5 -7t77.5 -36t51.5 -62.5t18.5 -87.5z" />
    <glyph glyph-name="six" unicode="6" horiz-adv-x="527" 
d="M212 242q0 -23 14 -38.5t37 -15.5t37 15.5t14 38.5t-14 38.5t-37 15.5t-37 -15.5t-14 -38.5zM21 242q0 26 5.5 51t15.5 48q0 1 2 5.5t12.5 26.5t33 69.5t63.5 133.5q8 17 22 29.5t31 18.5t35.5 5.5t36.5 -8.5q18 -9 31.5 -23.5t20 -31.5t5.5 -35.5t-12 -34.5l-12 -18
q41 -9 76.5 -30.5t61.5 -52.5t41 -70.5t15 -82.5q0 -50 -19 -94t-52 -77t-77 -52t-94 -19t-94 19t-77 52t-52 77t-19 94z" />
    <glyph glyph-name="seven" unicode="7" horiz-adv-x="511" 
d="M206 -102q-9 -17 -24 -28t-32 -16t-35.5 -3t-36.5 11q-17 9 -28.5 24t-16.5 32t-3 35.5t12 35.5l186 307h-112q-40 0 -67 27.5t-27 66.5q0 40 27 67t67 27h279q39 0 66.5 -27t27.5 -67q0 -28 -16 -52z" />
    <glyph glyph-name="eight" unicode="8" horiz-adv-x="507" 
d="M69 451q0 38 14.5 72t39.5 59t58.5 39.5t71.5 14.5t72 -14.5t59 -39.5t39.5 -59t14.5 -72q0 -20 -8.5 -40t-21.5 -34q14 -11 27 -27.5t23 -37t16 -42.5t6 -43q0 -47 -18 -88.5t-48.5 -72t-72 -48.5t-88.5 -18t-88.5 18t-72 48.5t-48.5 72t-18 88.5q0 22 6 44t16 42
t23 36.5t27 28.5q-18 17 -23.5 35t-5.5 38zM216 227q0 -17 10 -29t27 -12t27 12t10 29t-10 29t-27 12t-27 -12t-10 -29zM235 457q0 -22 19 -22q20 0 20 22t-20 22q-19 0 -19 -22z" />
    <glyph glyph-name="nine" unicode="9" horiz-adv-x="527" 
d="M505 239q0 -28 -6 -55.5t-18 -50.5l-108 -228q-8 -17 -22 -29.5t-31 -18.5t-35.5 -5.5t-36.5 8.5q-18 9 -32 23.5t-20.5 32t-5.5 35.5t13 34l13 17q-41 9 -76.5 30.5t-62 53t-41.5 70.5t-15 83q0 50 19 94t52 77t77 52t94 19t94 -19t77 -52t52 -77t19 -94zM314 239
q0 23 -14 38.5t-37 15.5t-37 -15.5t-14 -38.5t14 -38.5t37 -15.5t37 15.5t14 38.5z" />
    <glyph glyph-name="colon" unicode=":" horiz-adv-x="248" 
d="M30 390q0 19 7.5 36.5t20 30t29.5 20t37 7.5q19 0 36.5 -7.5t30 -20t20 -30t7.5 -36.5q0 -20 -7.5 -37t-20 -29.5t-30 -20t-36.5 -7.5q-20 0 -37 7.5t-29.5 20t-20 29.5t-7.5 37zM30 94q0 19 7.5 36.5t20 30t29.5 20t37 7.5q39 0 66.5 -27.5t27.5 -66.5q0 -20 -7.5 -37
t-20 -29.5t-30 -20t-36.5 -7.5q-39 0 -66.5 27.5t-27.5 66.5z" />
    <glyph glyph-name="semicolon" unicode=";" horiz-adv-x="245" 
d="M28 92q0 39 27 65.5t67 26.5q19 0 36.5 -7t30.5 -19.5t20 -29.5t7 -36q-1 -30 -13 -58.5t-31.5 -50.5t-43.5 -36t-49 -15q-20 -1 -30.5 16.5t-15 42.5t-5 53t-0.5 48zM28 392q0 39 27 65.5t67 26.5q39 0 66.5 -26.5t27.5 -65.5q0 -40 -27.5 -66t-66.5 -26q-40 0 -67 26
t-27 66z" />
    <glyph glyph-name="less" unicode="&#x3c;" horiz-adv-x="379" 
d="M236 285l87 -67q14 -13 21 -30t7 -35.5t-7 -36t-21 -31.5q-28 -28 -66.5 -28t-66.5 28l-135 134q-27 28 -27.5 66t27.5 67l135 134q28 28 66.5 28t66.5 -28q14 -14 21 -31.5t7 -35.5t-7 -35.5t-21 -30.5z" />
    <glyph glyph-name="equal" unicode="=" horiz-adv-x="448" 
d="M319 255q39 0 66.5 -27t27.5 -67q0 -20 -7.5 -37t-20 -29.5t-30 -20t-36.5 -7.5h-190q-40 0 -67 27.5t-27 66.5q0 40 27 67t67 27h190zM319 484q39 0 66.5 -27t27.5 -67q0 -20 -7.5 -37t-20 -29.5t-30 -20t-36.5 -7.5h-190q-40 0 -67 27.5t-27 66.5q0 40 27 67t67 27h190
z" />
    <glyph glyph-name="greater" unicode="&#x3e;" horiz-adv-x="379" 
d="M56 353q-14 13 -21 30.5t-7 35.5t7 35.5t21 31.5q28 28 66.5 28t66.5 -28l135 -134q28 -29 27.5 -67t-27.5 -66l-135 -134q-28 -28 -66.5 -28t-66.5 28q-14 14 -21 31.5t-7 36t7 35.5t21 30l87 67z" />
    <glyph glyph-name="question" unicode="?" horiz-adv-x="551" 
d="M172 0q0 19 7.5 36.5t20 30t29.5 20t37 7.5q19 0 36.5 -7.5t30 -20t20 -30t7.5 -36.5q0 -20 -7.5 -37t-20 -29.5t-30 -20t-36.5 -7.5q-20 0 -37 7.5t-29.5 20t-20 29.5t-7.5 37zM172 264q0 33 23 60.5t58 33.5q12 3 33.5 11t35.5 22q16 17 14 40t-17 38q-17 17 -39.5 18
t-39.5 -14q-14 -14 -22 -35.5t-10 -33.5q-6 -30 -27 -51q-29 -29 -61 -29t-60 28q-21 21 -28 50t-1 60q6 23 17 48q9 21 24 45.5t38 47.5q36 35 80.5 52.5t90.5 17.5t90.5 -18t80.5 -53q35 -35 52.5 -76.5t17.5 -84t-17.5 -83.5t-52.5 -77q-22 -22 -43 -38t-41 -22
q-14 -8 -20.5 -22.5t-15 -28.5t-23 -24.5t-43.5 -10.5q-40 1 -67 27.5t-27 66.5v35z" />
    <glyph glyph-name="at" unicode="@" horiz-adv-x="888" 
d="M498 29q24 15 51.5 5.5t41.5 -35.5q13 -26 7 -56.5t-38 -49.5q-10 -7 -32.5 -14t-54 -10.5t-70.5 -1t-80.5 15t-84 36.5t-81.5 65q-55 56 -81 130.5t-25 152t28.5 150t79.5 125.5q39 40 87 65.5t100 37t105 10t102 -13.5t91.5 -35t73.5 -54q54 -50 82.5 -114.5t34 -130
t-9.5 -123.5t-47 -95q-24 -28 -47.5 -38t-44 -8.5t-38.5 11.5t-30.5 22t-19.5 23.5t-7 16.5q-28 -27 -64.5 -41t-74 -15t-73.5 12t-63 40q-28 28 -42.5 64.5t-15.5 75t12.5 75t41.5 64.5q17 17 44 32.5t58.5 22.5t64.5 4t63 -21.5t54 -55.5t37 -97q19 -17 29 -14t10.5 19.5
t-7 42t-22.5 52.5t-37.5 52.5t-51.5 41.5q-52 29 -107 24.5t-102 -30.5t-81 -69t-43 -92q-11 -57 2 -112.5t50 -95.5q19 -21 46.5 -40t58 -30.5t62 -12t58.5 16.5zM435 246q0 -8 4.5 -13t12.5 -5t12.5 5t4.5 13t-4.5 13t-12.5 5t-12.5 -5t-4.5 -13z" />
    <glyph glyph-name="A" unicode="A" horiz-adv-x="609" 
d="M572 128q14 -38 -1.5 -72.5t-53.5 -48.5q-18 -7 -36.5 -6.5t-35 8t-29.5 21t-20 31.5l-12 26h-160l-12 -26q-7 -18 -20 -31.5t-29.5 -21t-35 -8t-36.5 6.5q-38 14 -53.5 48.5t-1.5 72.5l168 410q5 11 7 27t9 30.5t23.5 24.5t49.5 10h11q32 0 54 -19.5t36 -49.5zM304 285
l-31 -75h62z" />
    <glyph glyph-name="B" unicode="B" horiz-adv-x="560" 
d="M55 529q-1 17 -5 35t-3 32t12.5 23.5t41.5 10.5h208q40 0 75.5 -15.5t61.5 -41.5t41.5 -61.5t15.5 -75.5q0 -30 -8.5 -56.5t-24.5 -48.5q21 -25 33.5 -56.5t12.5 -68.5q0 -43 -16.5 -80.5t-44.5 -65.5t-65.5 -44t-80.5 -16h-160q-20 0 -37 7.5t-29.5 20t-20 29.5t-7.5 37
v435zM243 255v-69h4l62 2q11 0 22.5 6t11.5 24q0 17 -10 25t-21 10l-65 2h-4zM243 459v-59h4l65 2q9 1 16 7.5t7 17.5q0 14 -8 22t-18 8l-62 2h-4z" />
    <glyph glyph-name="C" unicode="C" horiz-adv-x="647" 
d="M589 247q13 -14 20 -31t7 -35t-7 -35.5t-20 -30.5q-44 -53 -106.5 -84t-136.5 -31q-65 0 -122.5 24.5t-100.5 67.5t-67.5 100.5t-24.5 122.5t24.5 122.5t67.5 100t100.5 67.5t122.5 25q73 0 134 -32t105 -84q13 -14 20 -31t7 -35t-7 -35.5t-20 -30.5q-16 -16 -35 -22
t-38.5 -3.5t-37 12t-30.5 24.5q-18 21 -43 36t-55 15q-26 0 -49.5 -10.5t-40.5 -28.5t-27 -42t-10 -50t10 -49.5t27.5 -41t40.5 -28t49 -10.5q32 0 59.5 18t47.5 39q14 16 33 23t38 7t36 -6t29 -18z" />
    <glyph glyph-name="D" unicode="D" horiz-adv-x="648" 
d="M145 0q-40 0 -67 27t-27 67v435q-1 18 -5 36t-2.5 32.5t13.5 23.5t45 9h188q65 0 122.5 -25t100 -67.5t67.5 -100t25 -122.5t-25 -122.5t-67.5 -100.5t-100 -67.5t-122.5 -24.5h-145zM417 315q0 26 -10 49t-27.5 40t-40.5 27t-49 11l-51 2v-259l51 3q26 1 49 11.5
t40.5 27.5t27.5 39.5t10 48.5z" />
    <glyph glyph-name="E" unicode="E" horiz-adv-x="521" 
d="M381 630q39 0 66.5 -27t27.5 -67q0 -20 -7.5 -37t-20 -29.5t-30 -20t-36.5 -7.5h-138v-33h72q39 0 66.5 -27t27.5 -67q0 -20 -7.5 -37t-20 -29.5t-30 -20t-36.5 -7.5h-72v-33h138q39 0 66.5 -27t27.5 -67q0 -20 -7.5 -37t-20 -29.5t-30 -20t-36.5 -7.5h-232q-40 0 -67 27
t-27 67v435q-1 18 -5 36t-2.5 32.5t13.5 23.5t45 9h275z" />
    <glyph glyph-name="F" unicode="F" horiz-adv-x="498" 
d="M369 630q39 0 66.5 -27t27.5 -67q0 -20 -7.5 -37t-20 -29.5t-30 -20t-36.5 -7.5h-138v-61h72q39 0 66.5 -27t27.5 -67q0 -20 -7.5 -37t-20 -29.5t-30 -20t-36.5 -7.5h-72v-99q0 -40 -27.5 -67t-66.5 -27q-40 0 -67 27t-27 67v435q-1 18 -5 36t-2.5 32.5t13.5 23.5t45 9
h275z" />
    <glyph glyph-name="G" unicode="G" horiz-adv-x="649" 
d="M336 257q0 23 15.5 32.5t38.5 9.5h173q23 0 38.5 -15.5t15.5 -38.5v-191q0 -23 -10.5 -38.5t-33.5 -15.5q-21 0 -40.5 13t-23.5 33q-35 -22 -76.5 -34t-86.5 -12q-65 0 -122.5 24.5t-100.5 67.5t-67.5 100.5t-24.5 122.5t24.5 122.5t67.5 100t100.5 67.5t122.5 25
q73 0 134 -32t105 -84q13 -14 20 -31t7 -35t-7 -35.5t-20 -30.5q-14 -14 -31 -20.5t-34.5 -6.5t-35 6.5t-30.5 20.5q-4 3 -10 11q-19 20 -43.5 35.5t-54.5 15.5q-26 0 -49.5 -10.5t-40.5 -28.5t-27 -42t-10 -50t10 -49.5t27.5 -41t40.5 -28t49 -10.5q10 0 19.5 2t18.5 5
q-20 4 -34 24.5t-14 41.5z" />
    <glyph glyph-name="H" unicode="H" horiz-adv-x="594" 
d="M357 210h-112v-116q0 -40 -27.5 -67t-66.5 -27q-40 0 -67 27t-27 67v435q-1 18 -5 36t-2.5 32.5t13.5 23.5t45 9h43q19 0 36.5 -7.5t30 -20t20 -30t7.5 -36.5v-138h112v131q-1 18 -5 36t-2.5 32.5t13.5 23.5t45 9h43q39 0 66.5 -27.5t27.5 -66.5v-442q0 -40 -27.5 -67
t-66.5 -27q-40 0 -67 27t-27 67v116z" />
    <glyph glyph-name="I" unicode="I" horiz-adv-x="283" 
d="M240 94q0 -40 -27.5 -67t-66.5 -27q-40 0 -67 27t-27 67v435q-1 18 -5 36t-2.5 32.5t13.5 23.5t45 9h43q19 0 36 -7.5t29.5 -20t20 -30t8.5 -37.5v-441z" />
    <glyph glyph-name="J" unicode="J" horiz-adv-x="273" 
d="M-65 -59q0 39 27 66.5t67 27.5h3q14 2 21 16.5t7 37.5v437q0 18 -4.5 36.5t-3.5 33.5t13.5 24.5t45.5 9.5h43q19 0 36.5 -7.5t30 -20t20 -30t7.5 -36.5v-4v-443q0 -56 -16 -100t-44.5 -75.5t-68 -48.5t-86.5 -18h-4q-40 0 -67 27t-27 67z" />
    <glyph glyph-name="K" unicode="K" horiz-adv-x="620" 
d="M415 607q15 13 32.5 18.5t35.5 4.5t35 -9t30 -23t18.5 -33t4 -36t-9.5 -34.5t-23 -29.5l-117 -100l136 -222q10 -17 12.5 -35.5t-1.5 -36t-15 -32.5t-28 -25q-17 -11 -35.5 -13.5t-35.5 2t-32 15.5t-25 28l-117 197l-26 -22l-8 -6v-121q0 -40 -27.5 -67t-66.5 -27
q-40 0 -67 27t-27 67v442q-1 18 -5 36t-2.5 32.5t13.5 23.5t45 9h43q38 0 65 -26.5t29 -67.5v-81z" />
    <glyph glyph-name="L" unicode="L" horiz-adv-x="519" 
d="M230 188h161q39 0 66.5 -27t27.5 -67q0 -20 -7.5 -37t-20 -29.5t-30 -20t-36.5 -7.5h-259q-38 2 -64 28.5t-26 65.5v435q-1 18 -5 36t-2.5 32.5t13.5 23.5t45 9h43q19 0 36.5 -7.5t30 -20t20 -30t7.5 -36.5v-348z" />
    <glyph glyph-name="M" unicode="M" horiz-adv-x="692" 
d="M642 94q0 -40 -27.5 -67t-66.5 -27q-40 0 -66 27t-26 67l-1 215l-38 -38q-28 -28 -66.5 -28t-66.5 28l-39 38l1 -215q-1 -40 -28 -67t-66 -27q-40 0 -67 27t-27 67v432v3q-1 18 -5 36t-2.5 32.5t13.5 23.5t45 9h43q22 0 40.5 -9t31.5 -24l125 -126q25 26 47 48.5t47 48.5
q8 9 13 19.5t13.5 20t22.5 16t40 6.5h16q39 0 66.5 -27.5t27.5 -66.5v-442v0z" />
    <glyph glyph-name="N" unicode="N" horiz-adv-x="657" 
d="M608 105q0 -22 -6 -42.5t-23 -36.5q-15 -14 -32.5 -20.5t-35.5 -5.5t-35 8.5t-30 22.5l-202 244l-1 -181q0 -40 -26.5 -67t-65.5 -27q-40 0 -67 27t-27 67v435q-1 18 -5 36t-2.5 32.5t13.5 23.5t45 9h43q22 0 40 -10.5t35 -28.5l1.5 -2t7 -8.5t17.5 -21t33.5 -40.5
t54.5 -65.5t81 -97.5l-1 170q0 18 -4.5 36.5t-3.5 33.5t13.5 24.5t45.5 9.5h43q18 0 35 -7.5t30 -20.5t21 -30t8 -36v-431z" />
    <glyph glyph-name="O" unicode="O" horiz-adv-x="684" 
d="M27 315q0 65 24.5 122.5t67.5 100t100.5 67.5t122.5 25t122.5 -25t100 -67.5t67.5 -100t25 -122.5t-25 -122.5t-67.5 -100.5t-100 -67.5t-122.5 -24.5t-122.5 24.5t-100.5 67.5t-67.5 100.5t-24.5 122.5zM215 313q0 -26 10 -49t27 -41t40.5 -28.5t49.5 -10.5t49 10.5
t40.5 28.5t27.5 42t10 50t-10 49.5t-27.5 41t-40.5 28t-49 10.5t-49.5 -10.5t-40.5 -28.5t-27 -42t-10 -50z" />
    <glyph glyph-name="P" unicode="P" horiz-adv-x="579" 
d="M541 383q0 -53 -20 -99t-54.5 -80t-81 -54t-98.5 -20h-53v-36q0 -40 -27.5 -67t-66.5 -27q-40 0 -67 27t-27 67v442q-1 18 -5 36t-2.5 32.5t13.5 23.5t45 9h190q52 0 98.5 -20t81 -54.5t54.5 -81t20 -98.5zM351 378q0 27 -18.5 48t-45.5 22l-53 2v-135l53 2
q27 1 45.5 17.5t18.5 43.5z" />
    <glyph glyph-name="Q" unicode="Q" horiz-adv-x="672" 
d="M21 315q0 65 24.5 122.5t67.5 100t100.5 67.5t122.5 25t122.5 -25t100 -67.5t67.5 -100t25 -122.5q0 -53 -16.5 -101t-46 -87.5t-70.5 -68.5t-89 -44l-8 -73q-5 -42 -24.5 -66t-58.5 -24q-40 0 -60 25.5t-25 64.5l-9 72q-48 15 -89 44t-71 68.5t-46.5 88t-16.5 101.5z
M214 315q0 -26 9 -50t25.5 -42t39 -28.5t48.5 -10.5t48.5 10.5t39 28.5t25.5 42t9 50t-9 49.5t-25.5 41t-39 28t-48.5 10.5t-48.5 -10.5t-38.5 -28t-25.5 -41t-9.5 -49.5z" />
    <glyph glyph-name="R" unicode="R" horiz-adv-x="590" 
d="M240 130v-36q0 -40 -27.5 -67t-66.5 -27q-40 0 -67 27t-27 67v442q-1 18 -5 36t-2.5 32.5t13.5 23.5t45 9h190q52 0 98.5 -20t81 -54.5t54.5 -81t20 -98.5q0 -30 -9 -59t-24.5 -55t-36 -47t-43.5 -34l46 -26q16 -11 23 -28t7 -35.5t-7.5 -37.5t-20.5 -33q-28 -27 -66 -28
t-67 28zM361 381q0 27 -20.5 46.5t-47.5 20.5l-53 2v-135l53 2q27 1 47.5 19t20.5 45z" />
    <glyph glyph-name="S" unicode="S" horiz-adv-x="538" 
d="M55 455q4 37 20 69t44.5 55.5t68 37t89.5 13.5q19 0 44.5 -5.5t51 -16t49 -26t38.5 -34.5q12 -14 17.5 -31.5t4.5 -36t-7.5 -35.5t-19.5 -30q-14 -14 -32 -20.5t-37 -7t-37.5 5.5t-33.5 18q-6 5 -10 12.5t-8.5 14.5t-11.5 12t-19 5q-15 0 -23 -4.5t-9 -11t4 -13.5t14 -12
l111 -63q44 -21 72 -46t42.5 -50.5t17.5 -51t-3 -48.5q-8 -41 -32.5 -70.5t-55.5 -48t-64.5 -27.5t-60.5 -9q-63 -1 -99 11.5t-58 29.5q-21 16 -37.5 36.5t-24.5 43t-5 45t20 42.5q9 11 26.5 19t38 9t42 -7.5t39.5 -30.5q14 -18 31 -20.5t25 -0.5q16 3 17 19t-17 27
q-19 12 -58.5 32.5t-91.5 45.5q-11 5 -25.5 14.5t-26 27t-18 44.5t-2.5 68z" />
    <glyph glyph-name="T" unicode="T" horiz-adv-x="531" 
d="M418 630q39 0 66.5 -27t27.5 -67q0 -20 -7.5 -37t-20 -29.5t-30 -20t-36.5 -7.5h-59l-2 -348q0 -40 -26.5 -67t-65.5 -27q-40 0 -66 27t-26 67l-2 348h-59q-40 0 -67 27.5t-27 66.5q0 40 27 67t67 27h306z" />
    <glyph glyph-name="U" unicode="U" horiz-adv-x="584" 
d="M53 529q-1 18 -5 36t-2.5 32.5t13.5 23.5t45 9h43q38 0 65 -26.5t29 -67.5v-293q0 -23 16 -39t39 -16q21 0 38 16t17 39v286q-1 18 -5 36t-2.5 32.5t13.5 23.5t45 9h43q18 0 35 -7t30 -19.5t21 -30t8 -37.5v-293q-1 -50 -20.5 -94t-52.5 -77t-77 -52.5t-93 -19.5
q-50 0 -94.5 19t-77.5 52t-52 77.5t-19 94.5v286z" />
    <glyph glyph-name="V" unicode="V" horiz-adv-x="603" 
d="M300 346l90 224q15 38 50 52.5t72 0.5q37 -15 52.5 -50t0.5 -72l-177 -442q-6 -15 -19.5 -30t-33.5 -23q-18 -7 -36.5 -6.5t-35 7.5t-30 20.5t-20.5 31.5l-177 442q-14 37 1 72t52 50q37 14 72 -0.5t50 -52.5z" />
    <glyph glyph-name="W" unicode="W" horiz-adv-x="867" 
d="M648 568q14 38 48 54t72 3q18 -6 31.5 -18.5t21.5 -28.5t9 -35t-5 -38l-161 -442q-14 -38 -46 -55t-70 -3q-20 6 -33.5 18.5t-21.5 28.5l-60 139l-61 -139q-8 -16 -21.5 -28.5t-32.5 -18.5q-38 -14 -70.5 3t-46.5 55l-160 442q-6 19 -5 38t9 35t21.5 28.5t31.5 18.5
q38 13 72.5 -3t47.5 -54l90 -259l45 126q11 32 33.5 46.5t47.5 13.5t47 -16.5t32 -43.5l46 -126z" />
    <glyph glyph-name="X" unicode="X" horiz-adv-x="707" 
d="M353 437l154 164q28 27 66.5 27.5t66.5 -27.5t28 -66.5t-28 -66.5l-164 -154l163 -153q29 -28 29 -66t-29 -67q-14 -14 -31 -20.5t-35 -6.5t-35.5 6.5t-31.5 20.5l-153 163l-152 -163q-14 -14 -31.5 -20.5t-35.5 -6.5t-35.5 6.5t-30.5 20.5q-29 29 -29 67t29 66l162 153
l-163 154q-28 28 -28 66.5t28 66.5t66.5 27.5t66.5 -27.5z" />
    <glyph glyph-name="Y" unicode="Y" horiz-adv-x="677" 
d="M338 437l154 164q13 14 30.5 21t35.5 7t35.5 -7t31.5 -21q28 -28 28 -66.5t-28 -66.5l-192 -189l-2 -185q-1 -40 -27 -67t-65 -27q-40 0 -65.5 27t-26.5 67l-2 184l-193 190q-28 28 -28 66.5t28 66.5t66.5 27.5t66.5 -27.5z" />
    <glyph glyph-name="Z" unicode="Z" horiz-adv-x="598" 
d="M463 630q39 0 66.5 -27t27.5 -67q0 -18 -7 -36t-19 -34l-213 -280q3 -5 22 -5t43 1.5t46.5 3.5t33.5 2q39 0 66.5 -27t27.5 -67q0 -20 -7.5 -37t-20 -29.5t-30 -20t-36.5 -7.5h-329q-17 0 -35 7.5t-32 21.5q-28 28 -27 66t24 68q53 70 105.5 139.5t106.5 140.5
q-4 6 -23.5 7t-43.5 -1t-46 -4.5t-29 -2.5q-40 0 -67 27.5t-27 66.5q0 40 27 67t67 27h329z" />
    <glyph glyph-name="bracketleft" unicode="[" horiz-adv-x="383" 
d="M252 637q39 0 66.5 -24.5t27.5 -64.5q0 -20 -7.5 -37.5t-20 -31.5t-30 -22t-36.5 -8h-27v-408h27q19 0 36.5 -8t30 -21.5t20 -31.5t7.5 -38q0 -39 -27.5 -64t-66.5 -25h-121q-39 0 -66 26t-28 64v610q0 18 7.5 33.5t20.5 26.5t30 17.5t36 6.5h121z" />
    <glyph glyph-name="backslash" unicode="\" horiz-adv-x="375" 
d="M28 507q-6 19 -3.5 37.5t11.5 34.5t24 28t34 18q38 12 69.5 -6t43.5 -55l140 -440q6 -19 3.5 -38t-12 -34.5t-24.5 -27.5t-33 -18q-38 -12 -69.5 5.5t-43.5 55.5z" />
    <glyph glyph-name="bracketright" unicode="]" horiz-adv-x="384" 
d="M252 637q19 0 36 -6.5t30 -17.5t20.5 -26.5t7.5 -33.5v-610q-1 -19 -8.5 -35.5t-20 -28.5t-29.5 -19t-36 -7h-121q-39 0 -66.5 25t-27.5 64q0 20 7.5 38t20 31.5t29.5 21.5t37 8h27v408h-27q-20 0 -37 8t-29.5 22t-20 31.5t-7.5 37.5q0 40 27.5 64.5t66.5 24.5h121z" />
    <glyph glyph-name="asciicircum" unicode="^" horiz-adv-x="483" 
d="M240 445l-62 -82q-13 -12 -29 -18.5t-32.5 -6.5t-33 6t-29.5 19t-19.5 29.5t-6.5 33t6.5 32.5t19.5 29l125 126q26 25 62 25t62 -25l124 -126q13 -13 19.5 -29t6.5 -32.5t-6.5 -33t-19.5 -29.5q-26 -26 -61.5 -25.5t-61.5 25.5z" />
    <glyph glyph-name="underscore" unicode="_" horiz-adv-x="539" 
d="M410 188q39 0 66.5 -27t27.5 -67q0 -20 -7.5 -37t-20 -29.5t-30 -20t-36.5 -7.5h-281q-40 0 -67 27.5t-27 66.5q0 40 27 67t67 27h281z" />
    <glyph glyph-name="grave" unicode="`" horiz-adv-x="278" 
d="M212 662q27 -20 35.5 -48.5t-9.5 -57.5q-19 -29 -51.5 -31.5t-61.5 12.5l-59 31q-30 18 -37.5 50.5t10.5 61.5t50.5 37t62.5 -11z" />
    <glyph glyph-name="a" unicode="a" horiz-adv-x="552" 
d="M34 242q0 50 17.5 94t48.5 77t73.5 52t92.5 19q35 0 72 -13.5t60 -33.5q8 18 26.5 31.5t38.5 13.5q27 0 41 -18.5t14 -45.5v-354q0 -27 -14 -45.5t-41 -18.5q-20 0 -38 15t-28 31q-29 -26 -62.5 -36t-68.5 -10q-50 0 -92.5 19t-73.5 52t-48.5 77t-17.5 94zM222 242
q0 -23 15 -40.5t38 -17.5t39 17.5t16 40.5t-16 40.5t-39 17.5t-38 -17.5t-15 -40.5z" />
    <glyph glyph-name="b" unicode="b" horiz-adv-x="540" 
d="M28 544q0 19 7.5 36t20 29.5t29.5 20t36 7.5t36 -7.5t29.5 -20t20 -29.5t7.5 -36v-89q3 6 12.5 11.5t20.5 9t23 6t20 2.5q50 0 91 -19t70 -52t45 -77t16 -94t-16 -94t-45 -77t-70 -52t-91 -19q-35 0 -72.5 11.5t-68.5 34.5q-7 -17 -26.5 -31.5t-39.5 -14.5
q-27 0 -41 18.5t-14 45.5v480zM324 242q0 23 -15 40.5t-38 17.5t-39 -17.5t-16 -40.5t16 -40.5t39 -17.5t38 17.5t15 40.5z" />
    <glyph glyph-name="c" unicode="c" horiz-adv-x="512" 
d="M29 242q0 50 19 94t51.5 76.5t76.5 52t94 19.5q32 0 60 -8t49 -18q25 -11 46 -25q26 -21 42 -41.5t16 -49.5q0 -39 -23 -62t-63 -23q-30 0 -55 17q-11 7 -31.5 16.5t-40.5 9.5q-23 -1 -38 -18.5t-15 -39.5q0 -23 15 -40t38 -18q20 0 40.5 9.5t31.5 16.5q25 17 55 17
q40 0 63 -23t23 -62q0 -29 -15.5 -55t-41.5 -43q-22 -12 -47 -22q-22 -8 -49.5 -15t-59.5 -7q-50 0 -94 19.5t-76.5 52t-51.5 76.5t-19 94z" />
    <glyph glyph-name="d" unicode="d" horiz-adv-x="540" 
d="M512 64q0 -27 -14 -45.5t-41 -18.5q-20 0 -39.5 14.5t-26.5 31.5q-31 -23 -68.5 -34.5t-72.5 -11.5q-50 0 -91 19t-70 52t-45 77t-16 94t16 94t45 77t70 52t91 19q8 0 20 -2.5t23 -6t20.5 -9t12.5 -11.5v89q0 19 7.5 36t20 29.5t29.5 20t36 7.5t36 -7.5t29.5 -20
t20 -29.5t7.5 -36v-480zM216 242q0 -23 15 -40.5t38 -17.5t39 17.5t16 40.5t-16 40.5t-39 17.5t-38 -17.5t-15 -40.5z" />
    <glyph glyph-name="e" unicode="e" horiz-adv-x="536" 
d="M510 252q0 -13 -6 -26t-17 -22.5t-25.5 -15.5t-30.5 -6q-27 -1 -50.5 -0.5l-47 1t-49 1t-56.5 0.5q5 -13 14 -18.5t26 -5.5q11 0 20 2.5t18.5 5.5t20 5.5t24.5 2.5q34 0 59.5 -22t25.5 -56q0 -23 -14.5 -43t-34.5 -30q-25 -13 -57 -19t-62 -6q-50 0 -94 19t-77 52t-52 77
t-19 94t19 94t52 77t77 52t94 19t94 -17.5t77 -48.5t52 -73.5t19 -92.5zM268 329q-14 0 -24.5 -7t-13.5 -18h76q-2 11 -13.5 18t-24.5 7z" />
    <glyph glyph-name="f" unicode="f" horiz-adv-x="436" 
d="M18 360q0 38 26 64t65 28q8 43 28 77t48.5 58t64.5 37t77 14h4q36 0 61 -25t25 -61t-25 -61t-61 -25q-16 0 -26 -14h7q39 0 66.5 -26.5t27.5 -65.5q0 -40 -27.5 -66t-66.5 -26h-10t-10 2v-176q0 -39 -27 -66.5t-67 -27.5q-20 0 -37 7.5t-29.5 20t-20 29.5t-7.5 37v174
q-37 3 -61.5 28.5t-24.5 63.5z" />
    <glyph glyph-name="g" unicode="g" horiz-adv-x="544" 
d="M514 -4q-1 -40 -14 -70.5t-33.5 -53t-46.5 -37t-52.5 -23t-51 -11t-42.5 -0.5q-33 3 -54 6t-38 12q-22 11 -37 33.5t-15 48.5q0 18 7 34t19.5 28.5t28.5 19.5t34 7q12 0 31.5 -2.5t42.5 -2.5q20 0 26.5 12.5t8.5 30.5q-4 -6 -13 -11t-20.5 -9t-23 -6t-19.5 -2
q-50 0 -91 19t-70 52t-45 77t-16 94t16 94t45 77t70 52t91 19q35 0 72.5 -11.5t68.5 -34.5q7 17 26.5 31.5t39.5 14.5q27 0 41 -18.5t14 -45.5v-424zM218 242q0 -23 15 -40.5t38 -17.5t39 17.5t16 40.5t-16 40.5t-39 17.5t-38 -17.5t-15 -40.5z" />
    <glyph glyph-name="h" unicode="h" horiz-adv-x="542" 
d="M215 93q0 -19 -7.5 -36t-20 -29.5t-29.5 -20t-36 -7.5t-36 7.5t-29.5 20t-20 29.5t-7.5 36v451q0 19 7.5 36t20 29.5t29.5 20t36 7.5t36 -7.5t29.5 -20t20 -29.5t7.5 -36v-89q4 6 13.5 11.5t20.5 9.5t22.5 6t19.5 2q50 0 91 -19t70 -52t45 -77t16 -94v-149
q0 -19 -7.5 -36t-20 -29.5t-29.5 -20t-36 -7.5t-36.5 7.5t-30.5 20t-20.5 29.5t-7.5 36v149q0 23 -15 40.5t-38 17.5t-39 -17.5t-16 -40.5z" />
    <glyph glyph-name="i" unicode="i" 
d="M36 617q0 39 27 65.5t67 26.5q39 0 66.5 -26.5t27.5 -65.5q0 -40 -27.5 -66t-66.5 -26q-40 0 -67 26t-27 66zM36 390q0 39 27 66.5t67 27.5q19 0 36.5 -7.5t30 -20t20 -30t7.5 -36.5v-296q0 -40 -27.5 -67t-66.5 -27q-40 0 -67 27t-27 67v296z" />
    <glyph glyph-name="j" unicode="j" horiz-adv-x="361" 
d="M24 -59q0 39 27 66.5t67 27.5q16 0 23.5 15t7.5 39v301q0 39 27 66.5t67 27.5q19 0 36.5 -7.5t30 -20t20 -30t7.5 -36.5v-301q0 -56 -16 -100t-44.5 -75.5t-68 -48.5t-86.5 -18h-4q-40 0 -67 27t-27 67zM149 616q0 39 27 65.5t67 26.5q39 0 66.5 -26.5t27.5 -65.5
q0 -40 -27.5 -66t-66.5 -26q-40 0 -67 26t-27 66z" />
    <glyph glyph-name="k" unicode="k" horiz-adv-x="545" 
d="M356 464q15 12 33 16.5t36 2t34 -12t28 -25.5q23 -32 17.5 -67.5t-37.5 -59.5l-59 -43l83 -123q12 -15 17.5 -33t4 -36t-10 -34.5t-24.5 -28.5q-31 -24 -67.5 -18.5t-60.5 36.5l-87 132q-27 -20 -34 -24.5t-10 -6.5v-45q0 -40 -27.5 -67t-66.5 -27q-40 0 -67 27t-27 67
v449q0 39 27 66.5t67 27.5q19 0 36.5 -7.5t30 -20t20 -30t7.5 -36.5v-179z" />
    <glyph glyph-name="l" unicode="l" horiz-adv-x="265" 
d="M38 543q0 39 27 66.5t67 27.5q19 0 36.5 -7.5t30 -20t20 -30t7.5 -36.5v-449q0 -40 -27.5 -67t-66.5 -27q-40 0 -67 27t-27 67v449z" />
    <glyph glyph-name="m" unicode="m" horiz-adv-x="775" 
d="M293 242q0 23 -4 40.5t-27 17.5t-30 -17.5t-7 -40.5l-2 -149q0 -19 -7.5 -36t-20 -29.5t-29.5 -20t-36 -7.5t-36 7.5t-29.5 20t-20 29.5t-7.5 36v327q0 27 14 45.5t41 18.5q20 0 39.5 -14.5t26.5 -31.5q31 23 58.5 34.5t62.5 11.5q41 0 69 -12.5t54 -34.5q30 22 64 34.5
t69 12.5q50 0 88 -19t63.5 -52t38 -77t12.5 -94v-149q0 -19 -7.5 -36t-20 -29.5t-29.5 -20t-36 -7.5t-36 7.5t-29.5 20t-20 29.5t-7.5 36l-2 149q0 23 -4 40.5t-27 17.5t-30 -17.5t-7 -40.5v-149q0 -19 -7.5 -36t-20 -29.5t-29.5 -20t-36 -7.5t-36 7.5t-29.5 20t-20 29.5
t-7.5 36l-2 149v0z" />
    <glyph glyph-name="n" unicode="n" horiz-adv-x="557" 
d="M36 420q0 27 14 45.5t41 18.5q20 0 39.5 -14.5t26.5 -31.5q31 23 68.5 34.5t72.5 11.5q50 0 91 -19t70 -52t45 -77t16 -94v-149q0 -19 -7.5 -36t-20 -29.5t-29.5 -20t-36 -7.5t-36 7.5t-29.5 20t-20 29.5t-7.5 36l-2 149q0 23 -15 40.5t-38 17.5t-39 -17.5t-16 -40.5
l-2 -149q0 -19 -7.5 -36t-20 -29.5t-29.5 -20t-36 -7.5t-36 7.5t-29.5 20t-20 29.5t-7.5 36v149v178z" />
    <glyph glyph-name="o" unicode="o" horiz-adv-x="540" 
d="M28 242q0 50 19 94t52 77t77 52t94 19t94 -19t77 -52t52 -77t19 -94t-19 -94t-52 -77t-77 -52t-94 -19t-94 19t-77 52t-52 77t-19 94zM216 242q0 -23 15.5 -40.5t38.5 -17.5t38.5 17.5t15.5 40.5t-15.5 40.5t-38.5 17.5t-38.5 -17.5t-15.5 -40.5z" />
    <glyph glyph-name="p" unicode="p" horiz-adv-x="538" 
d="M27 420q0 27 14 45.5t41 18.5q20 0 39.5 -14.5t26.5 -31.5q31 23 68.5 34.5t72.5 11.5q50 0 91 -19t70 -52t45 -77t16 -94t-16 -94t-45 -77t-70 -52t-91 -19q-8 0 -20 2.5t-23 6t-20.5 9t-12.5 11.5v-89q0 -19 -7.5 -36t-20 -29.5t-29.5 -20t-36 -7.5t-36 7.5t-29.5 20
t-20 29.5t-7.5 36v480zM323 242q0 23 -15 40.5t-38 17.5t-39 -17.5t-16 -40.5t16 -40.5t39 -17.5t38 17.5t15 40.5z" />
    <glyph glyph-name="q" unicode="q" horiz-adv-x="539" 
d="M511 -60q0 -19 -7.5 -36t-20 -29.5t-29.5 -20t-36 -7.5t-36 7.5t-29.5 20t-20 29.5t-7.5 36v89q-3 -6 -12.5 -11.5t-20.5 -9t-23 -6t-20 -2.5q-50 0 -91 19t-70 52t-45 77t-16 94t16 94t45 77t70 52t91 19q35 0 72.5 -11.5t68.5 -34.5q7 17 26.5 31.5t39.5 14.5
q27 0 41 -18.5t14 -45.5v-480zM215 242q0 -23 15 -40.5t38 -17.5t39 17.5t16 40.5t-16 40.5t-39 17.5t-38 -17.5t-15 -40.5z" />
    <glyph glyph-name="r" unicode="r" horiz-adv-x="425" 
d="M24 420q0 27 14 45.5t41 18.5q20 0 39.5 -14.5t26.5 -31.5q28 23 57 34.5t64 11.5q33 0 49 -4.5t33 -13.5q22 -11 37 -33.5t15 -48.5q0 -18 -7 -34t-19.5 -28.5t-28.5 -19.5t-34 -7q-12 0 -26.5 2.5t-37.5 2.5t-29 -17.5t-6 -40.5l-2 -149q0 -19 -7.5 -36t-20 -29.5
t-29.5 -20t-36 -7.5t-36 7.5t-29.5 20t-20 29.5t-7.5 36v327z" />
    <glyph glyph-name="s" unicode="s" horiz-adv-x="532" 
d="M263 0q-32 0 -70 9.5t-70.5 27t-54 43t-21.5 57.5t22 55t55 23q22 0 44.5 -9t43 -20t38 -20t31.5 -9q6 0 10 3t4 5q0 5 -16.5 11.5t-40.5 15t-53 21t-53 29.5t-40.5 40t-16.5 54q0 22 10 48t32.5 48t58.5 37t89 15q40 0 77 -7.5t65 -22.5t44.5 -36.5t16.5 -49.5
q0 -21 -8 -36t-20 -25t-26 -15t-27 -5q-19 0 -35.5 6.5t-30.5 14t-25 14t-20 6.5q-7 0 -9 -3t-2 -6t11.5 -8.5t28.5 -12t36 -13t33 -12.5q12 -5 31 -15.5t36 -27t29.5 -39.5t12.5 -52q0 -37 -18.5 -63.5t-49.5 -43t-70.5 -24.5t-81.5 -8z" />
    <glyph glyph-name="t" unicode="t" horiz-adv-x="431" 
d="M15 393q0 40 27 66t67 26q8 0 12 -1v59q0 39 27 66.5t67 27.5q19 0 36.5 -7.5t30 -20t20 -30t7.5 -36.5v-59q4 1 13 1q39 0 66.5 -26t27.5 -66q0 -39 -27.5 -65.5t-66.5 -26.5h-13v-207q0 -40 -27.5 -67t-66.5 -27q-40 0 -67 27t-27 67v207h-12q-40 0 -67 26.5t-27 65.5z
" />
    <glyph glyph-name="u" unicode="u" horiz-adv-x="558" 
d="M521 64q0 -27 -14 -45.5t-41 -18.5q-20 0 -39.5 14.5t-26.5 31.5q-31 -23 -68.5 -34.5t-72.5 -11.5q-50 0 -91 19t-70 52t-45 77t-16 94v149q0 19 7.5 36t20 29.5t29.5 20t36 7.5t36 -7.5t29.5 -20t20 -29.5t7.5 -36l2 -149q0 -23 15 -40.5t38 -17.5t39 17.5t16 40.5
l2 149q0 19 7.5 36t20 29.5t29.5 20t36 7.5t36 -7.5t29.5 -20t20 -29.5t7.5 -36v-149v-178z" />
    <glyph glyph-name="v" unicode="v" horiz-adv-x="560" 
d="M42 356q-18 36 -5 68t48 50q16 9 33.5 10.5t34 -4t31 -17t24.5 -28.5l72 -161l72 161q10 17 24.5 28.5t31 17t34 4t33.5 -10.5q35 -18 48 -50t-5 -68l-154 -300q-13 -26 -35 -41t-48 -15q-27 0 -47.5 11.5t-38.5 44.5z" />
    <glyph glyph-name="w" unicode="w" horiz-adv-x="834" 
d="M334 430q11 25 34.5 38t47.5 13q29 0 51 -15.5t32 -35.5l63 -156l62 158q7 18 21.5 30t31.5 17t35.5 3t34.5 -11q35 -18 45 -54t-7 -72l-139 -289q-13 -26 -35 -41t-48 -15q-27 0 -47.5 11.5t-38.5 44.5l-61 158l-60 -158q-13 -26 -35 -41t-48 -15q-27 0 -47.5 11.5
t-38.5 44.5l-138 289q-17 37 -7 72.5t45 53.5q16 9 34 11t35 -3t31.5 -17t22.5 -30l62 -158z" />
    <glyph glyph-name="x" unicode="x" horiz-adv-x="562" 
d="M67 326q-28 28 -28.5 65t27.5 65q13 14 29.5 21t34 7t35 -6.5t31.5 -19.5l85 -96l86 96q28 26 65.5 26t64.5 -28q27 -27 26.5 -65t-27.5 -65l-94 -84l94 -84q27 -27 27.5 -65t-26.5 -65q-27 -28 -64.5 -28t-65.5 26l-86 95l-85 -95q-14 -13 -31.5 -19.5t-35 -6.5t-34 7
t-29.5 21q-28 28 -27.5 65t28.5 65l94 84z" />
    <glyph glyph-name="y" unicode="y" horiz-adv-x="546" 
d="M515 -4q-1 -40 -14 -70.5t-33.5 -53t-46.5 -37t-52.5 -23t-51 -11t-42.5 -0.5q-33 3 -54 6t-38 12q-22 11 -37 33.5t-15 48.5q0 18 7 34t19.5 28.5t28.5 19.5t34 7q12 0 31.5 -2.5t42.5 -2.5q14 0 21.5 7.5t10.5 19.5q-38 -12 -73 -12q-50 0 -91 19t-70 52t-45 77t-16 94
v149q0 19 7.5 36t20 29.5t29.5 20t36 7.5t36 -7.5t29.5 -20t20 -29.5t7.5 -36l2 -149q0 -23 15 -40.5t38 -17.5t39 17.5t16 40.5l2 149q0 19 7.5 36t20 29.5t29.5 20t36 7.5t36 -7.5t29.5 -20t20 -29.5t7.5 -36v-395z" />
    <glyph glyph-name="z" unicode="z" horiz-adv-x="564" 
d="M427 484q19 0 36 -7t29.5 -19.5t19.5 -29.5t7 -36t-7 -35t-19 -29q-9 -11 -36 -35t-56 -48q-34 -29 -74 -61q28 -5 57.5 -1.5t52.5 3.5q19 0 36 -7t29.5 -20t19.5 -30t7 -36t-7 -36t-19.5 -29.5t-29.5 -20t-36 -7.5h-310q-20 0 -36.5 7t-29 19.5t-19.5 29.5t-7 36
q0 49 34 78q4 5 17 16.5t30 25.5t36 29.5t35.5 28.5t27 21t11.5 9q-7 2 -18 2t-24 -1t-25.5 -2t-21.5 -1q-20 0 -36.5 7.5t-29 20t-19.5 29.5t-7 36q0 39 26.5 66t65.5 27h290z" />
    <glyph glyph-name="braceleft" unicode="{" horiz-adv-x="409" 
d="M26 245q0 19 10 28t22 16t22 17t10 32v103q1 40 17 76t43 62.5t62.5 42t76.5 15.5q39 0 66.5 -25t27.5 -64q0 -20 -7.5 -38t-20 -31.5t-30 -22t-36.5 -8.5h-2q-9 -2 -9 -11v-384q0 -11 11 -11q19 0 36.5 -8.5t30 -22t20 -32t7.5 -37.5q0 -39 -27.5 -64t-66.5 -25h-4
q-41 1 -76.5 17t-61.5 43t-41.5 63t-15.5 77v101q0 16 -10 25t-22 17t-22 18.5t-10 30.5z" />
    <glyph glyph-name="bar" unicode="|" horiz-adv-x="266" 
d="M39 546q0 39 27 66.5t67 27.5q19 0 36.5 -7.5t30 -20t20 -30t7.5 -36.5v-586q0 -40 -27.5 -67t-66.5 -27q-40 0 -67 27t-27 67v586z" />
    <glyph glyph-name="braceright" unicode="}" horiz-adv-x="409" 
d="M383 245q0 -20 -10 -30.5t-22 -18.5t-22 -17t-10 -25v-101q0 -41 -15.5 -77t-41.5 -63t-62 -43t-76 -17h-4q-39 0 -66.5 25t-27.5 64q0 19 7.5 37.5t20 32t29.5 22t37 8.5q11 0 11 11v384q0 9 -9 11h-2q-20 0 -37 8.5t-29.5 22t-20 31.5t-7.5 38q0 39 27.5 64t66.5 25
q40 0 76 -15.5t63 -42t43 -62.5t17 -76v-103q0 -22 10 -32t22 -17t22 -16t10 -28z" />
    <glyph glyph-name="asciitilde" unicode="~" horiz-adv-x="667" 
d="M36 231q1 40 18 72.5t45.5 55t65 34.5t77.5 12q24 0 50.5 -8t51 -23.5t45 -37.5t31.5 -50q2 -6 7 -10.5t13 -4.5q20 0 23 22q3 18 11.5 34t21.5 28t29.5 19t34.5 7q37 0 57.5 -25.5t20.5 -62.5v-3q-1 -41 -18 -73.5t-45.5 -55.5t-66 -35t-78.5 -11q-26 0 -52.5 8.5
t-50 23.5t-42.5 36.5t-31 48.5q-7 17 -22 17q-9 0 -14 -6.5t-7 -15.5q-9 -36 -35 -61.5t-63 -25.5t-57 25t-20 62v4z" />
    <glyph glyph-name="exclamdown" unicode="&#xa1;" horiz-adv-x="245" 
d="M29 -74.8936q0 -39.9932 27 -66.9873q27 -26.9951 67 -26.9951q39 0 66.5 26.9951q27.5 26.9941 27.5 66.9873v353.936q0 19.9961 -7.5 36.9932q-7.5 16.9961 -20 29.4941t-30 19.9961q-17.5 7.49902 -36.5 7.49902q-40 0 -67 -27.4951t-27 -66.4873v-353.936zM29 506
q0 -39.9922 27 -65.9883q27 -25.9951 67 -25.9951q39 0 66.5 25.9951q27.5 25.9961 27.5 65.9883q0 38.9932 -27.5 65.4883t-66.5 26.4951q-40 0 -67 -26.4951t-27 -65.4883z" />
    <glyph glyph-name="cent" unicode="&#xa2;" horiz-adv-x="512" 
d="M172 21q-64 29 -103.5 88t-39.5 133t39.5 132.5t103.5 87.5v84q0 39 22 66.5t62 27.5q39 0 61.5 -27.5t22.5 -66.5v-73q19 -6 34.5 -13t26.5 -13q13 -7 24 -14q26 -21 42 -41.5t16 -49.5q0 -39 -23 -62t-63 -23q-30 0 -55 17q-5 3 -13 9t-18 12t-20.5 10.5t-20.5 4.5
q-11 0 -21 -7t-17 -16.5t-11 -21.5t-4 -23q0 -23 15 -45t38 -23q10 0 20.5 4.5t20.5 10.5t18 12t13 9q25 17 55 17q40 0 63 -23t23 -62q0 -29 -15.5 -55t-41.5 -43q-12 -7 -25 -13q-11 -5 -27 -11t-34 -11v-49q0 -40 -22.5 -67t-61.5 -27q-40 0 -62 27t-22 67v61z" />
    <glyph glyph-name="sterling" unicode="&#xa3;" horiz-adv-x="519" 
d="M42 432v97q0 14 -4 31t-4 31q0 17 11.5 28t47.5 11h43q19 0 36.5 -7.5t30 -20t20 -30t7.5 -36.5v-104h8q39 0 66.5 -27t27.5 -67q0 -20 -7.5 -37t-20 -29.5t-30 -20t-36.5 -7.5h-8v-56h161q39 0 66.5 -27t27.5 -67q0 -20 -7.5 -37t-20 -29.5t-30 -20t-36.5 -7.5h-259
q-19 0 -35.5 7.5t-28.5 20t-19 29.5t-7 37v150h-5q-40 0 -67 27.5t-27 66.5q0 40 27 67t67 27h5z" />
    <glyph glyph-name="yen" unicode="&#xa5;" horiz-adv-x="677" 
d="M246 198l-1 25h-18q-26 0 -43 17.5t-17 42.5q0 30 23 48l-138 137q-28 28 -28 66.5t28 66.5t66.5 27.5t66.5 -27.5l153 -164l154 164q13 14 30.5 21t35.5 7t35.5 -7t31.5 -21q28 -28 28 -66.5t-28 -66.5l-137 -135q12 -8 19.5 -21.5t7.5 -28.5q0 -25 -17.5 -42.5
t-43.5 -17.5h-22v-25h22q26 0 43.5 -18t17.5 -43t-17.5 -42.5t-43.5 -17.5h-25q-6 -34 -30.5 -55.5t-59.5 -21.5t-60 21.5t-31 55.5h-21q-26 0 -43 17.5t-17 42.5t17 43t43 18h19z" />
    <glyph glyph-name="brokenbar" unicode="&#xa6;" horiz-adv-x="266" 
d="M39 543q0 39 27 66.5t67 27.5q19 0 36.5 -7.5t30 -20t20 -30t7.5 -36.5v-186q0 -40 -27.5 -67t-66.5 -27q-40 0 -67 27t-27 67v186zM39 128q0 39 27 66.5t67 27.5q39 0 66.5 -27.5t27.5 -66.5v-181q0 -40 -27.5 -67t-66.5 -27q-40 0 -67 27t-27 67v181z" />
    <glyph glyph-name="dieresis" unicode="&#xa8;" horiz-adv-x="479" 
d="M34 754q0 19 7.5 36.5t20 30t29.5 20t37 7.5q19 0 36.5 -7.5t30 -20t20 -30t7.5 -36.5q0 -20 -7.5 -37t-20 -29.5t-30 -20t-36.5 -7.5q-20 0 -37 7.5t-29.5 20t-20 29.5t-7.5 37zM264 754q0 19 7.5 36.5t20 30t29.5 20t37 7.5q19 0 36.5 -7.5t30 -20t20 -30t7.5 -36.5
q0 -20 -7.5 -37t-20 -29.5t-30 -20t-36.5 -7.5q-20 0 -37 7.5t-29.5 20t-20 29.5t-7.5 37z" />
    <glyph glyph-name="copyright" unicode="&#xa9;" horiz-adv-x="745" 
d="M17 315q0 65 26.5 122.5t71 100t103.5 67.5t124 25t124 -25t103.5 -67.5t71 -100t26.5 -122.5t-26.5 -122.5t-71 -100.5t-103.5 -67.5t-124 -24.5t-124 24.5t-103.5 67.5t-71 100.5t-26.5 122.5zM205 313q0 -26 11.5 -49t30.5 -41t44 -28.5t51 -10.5t51 10.5t44 28.5
t30.5 42t11.5 50t-11.5 49.5t-30.5 41t-44 28t-51 10.5t-51 -10.5t-44 -28.5t-30.5 -42t-11.5 -50zM241 313q0 21 7.5 39t21 31.5t32 21.5t39.5 8q13 0 24.5 -3.5t20.5 -7.5q11 -4 19 -10q11 -8 17.5 -16.5t6.5 -20.5q0 -17 -9.5 -26.5t-26.5 -9.5q-12 0 -22 7q-5 3 -13.5 7
t-16.5 4q-10 0 -16 -7.5t-6 -16.5t6 -16t16 -8q8 0 16.5 4t13.5 7q8 7 22 7q17 0 26.5 -9.5t9.5 -25.5q0 -12 -6.5 -22.5t-17.5 -18.5q-8 -5 -19 -9q-9 -4 -20.5 -6.5t-24.5 -2.5q-21 0 -39.5 8t-32 21.5t-21 31.5t-7.5 39z" />
    <glyph glyph-name="guillemotleft" unicode="&#xab;" horiz-adv-x="749" 
d="M336 159q14 -14 21 -31t7 -35t-7 -35.5t-21 -30.5q-14 -14 -31 -21t-35 -7t-35.5 7t-30.5 21l-150 147q-27 29 -27 66.5t27 66.5l150 148q28 29 66 29t67 -28q14 -14 21 -31.5t7 -36t-7 -36t-22 -30.5l-102 -80zM658 159q14 -14 21 -31t7 -35t-7 -35.5t-21 -30.5
q-14 -14 -31 -21t-35 -7t-35.5 7t-30.5 21l-150 147q-27 29 -27 66.5t27 66.5l150 148q28 29 66 29t67 -28q14 -14 21 -31.5t7 -36t-7 -36t-22 -30.5l-102 -80z" />
    <glyph glyph-name="registered" unicode="&#xae;" horiz-adv-x="745" 
d="M17 315q0 65 26.5 122.5t71 100t103.5 67.5t124 25t124 -25t103.5 -67.5t71 -100t26.5 -122.5t-26.5 -122.5t-71 -100.5t-103.5 -67.5t-124 -24.5t-124 24.5t-103.5 67.5t-71 100.5t-26.5 122.5zM205 313q0 -26 11.5 -49t30.5 -41t44 -28.5t51 -10.5t51 10.5t44 28.5
t30.5 42t11.5 50t-11.5 49.5t-30.5 41t-44 28t-51 10.5t-51 -10.5t-44 -28.5t-30.5 -42t-11.5 -50zM258 380q0 13 6.5 22t20.5 9q10 0 19.5 -7t13.5 -16q14 11 27.5 17t30.5 6t25 -2t16 -7q11 -5 18.5 -16.5t7.5 -23.5q0 -18 -13.5 -31t-30.5 -13q-6 0 -13 1t-19 1
q-11 0 -14 -8.5t-3 -19.5l-1 -40q0 -20 -13 -33t-32 -13q-20 0 -33 13t-13 33v128z" />
    <glyph glyph-name="plusminus" unicode="&#xb1;" horiz-adv-x="441" 
d="M321 188q39 0 66.5 -27t27.5 -67q0 -20 -7.5 -37t-20 -29.5t-30 -20t-36.5 -7.5h-201q-40 0 -67 27.5t-27 66.5q0 40 27 67t67 27h201zM314 320q0 -39 -27 -66.5t-67 -27.5q-39 0 -66.5 27.5t-27.5 66.5v6h-6q-40 0 -67 27.5t-27 66.5q0 40 27 67t67 27h6v7q0 40 27.5 67
t66.5 27q40 0 67 -27t27 -67v-7h7q39 0 66.5 -27t27.5 -67q0 -20 -7.5 -37t-20 -29.5t-30 -20t-36.5 -7.5h-7v-6z" />
    <glyph glyph-name="acute" unicode="&#xb4;" horiz-adv-x="278" 
d="M125 706q30 19 62.5 11t50.5 -37t10.5 -61.5t-37.5 -50.5l-59 -31q-29 -15 -61.5 -12.5t-51.5 31.5q-18 29 -9.5 57.5t35.5 48.5z" />
    <glyph glyph-name="mu" unicode="&#xb5;" horiz-adv-x="558" 
d="M224 242q0 -23 16.5 -40.5t39.5 -17.5t38 17.5t15 40.5v149q0 19 7.5 36t20.5 29.5t30.5 20t36.5 7.5t36 -7.5t29.5 -20t20 -29.5t7.5 -36v-149q0 -50 -16 -94t-45 -77t-70 -52t-91 -19q-8 0 -19.5 2t-22.5 6t-20.5 9.5t-13.5 11.5v-89q0 -19 -7.5 -36t-20 -29.5
t-29.5 -20t-36 -7.5t-36 7.5t-29.5 20t-20 29.5t-7.5 36v451q0 19 7.5 36t20 29.5t29.5 20t36 7.5t36 -7.5t29.5 -20t20 -29.5t7.5 -36z" />
    <glyph glyph-name="mu" unicode="&#x3bc;" horiz-adv-x="558" 
d="M224 242q0 -23 16.5 -40.5t39.5 -17.5t38 17.5t15 40.5v149q0 19 7.5 36t20.5 29.5t30.5 20t36.5 7.5t36 -7.5t29.5 -20t20 -29.5t7.5 -36v-149q0 -50 -16 -94t-45 -77t-70 -52t-91 -19q-8 0 -19.5 2t-22.5 6t-20.5 9.5t-13.5 11.5v-89q0 -19 -7.5 -36t-20 -29.5
t-29.5 -20t-36 -7.5t-36 7.5t-29.5 20t-20 29.5t-7.5 36v451q0 19 7.5 36t20 29.5t29.5 20t36 7.5t36 -7.5t29.5 -20t20 -29.5t7.5 -36z" />
    <glyph glyph-name="periodcentered" unicode="&#xb7;" horiz-adv-x="244" 
d="M28 219q0 39 27 65.5t67 26.5q39 0 66.5 -26.5t27.5 -65.5q0 -40 -27.5 -66t-66.5 -26q-40 0 -67 26t-27 66z" />
    <glyph glyph-name="cedilla" unicode="&#xb8;" horiz-adv-x="383" 
d="M20 -99q18 19 36 19q10 0 18.5 -4.5t17 -10t16.5 -10t17 -4.5q10 0 23 11t13 24q0 8 -4 16t-9.5 16t-9.5 17t-4 20q0 10 6 21.5t17 21.5t25 16t31 6q24 0 42.5 -11.5t30.5 -30.5t18.5 -42t6.5 -46q0 -38 -15 -72t-40.5 -59.5t-59.5 -40.5t-72 -15q-22 0 -45 6.5t-42 18.5
t-31 29.5t-12 40.5v6q0 16 7.5 31t18.5 26z" />
    <glyph glyph-name="ordmasculine" unicode="&#xba;" horiz-adv-x="452" 
d="M33 446q0 40 15 75t41.5 61.5t61.5 41.5t75 15t75 -15t61.5 -41.5t41.5 -61.5t15 -75t-15 -75t-41.5 -61.5t-61.5 -41.5t-75 -15t-75 15t-61.5 41.5t-41.5 61.5t-15 75zM215 446q0 -13 11 -13t11 13q0 12 -11 12t-11 -12zM326 213q39 0 66.5 -27t27.5 -67q0 -20 -7.5 -37
t-20 -29.5t-30 -20t-36.5 -7.5h-201q-40 0 -67 27.5t-27 66.5q0 40 27 67t67 27h201z" />
    <glyph glyph-name="guillemotright" unicode="&#xbb;" horiz-adv-x="712" 
d="M481 242l-102 80q-15 13 -22 30.5t-7 36t7 36t21 31.5q29 28 67 28t66 -29l150 -148q27 -29 27 -66.5t-27 -66.5l-150 -147q-14 -14 -31 -21t-35 -7t-35.5 7t-30.5 21q-14 13 -21 30.5t-7 35.5t7 35t21 31zM159 242l-102 80q-15 13 -22 30.5t-7 36t7 36t21 31.5
q29 28 67 28t66 -29l150 -148q27 -29 27 -66.5t-27 -66.5l-150 -147q-14 -14 -31 -21t-35 -7t-35.5 7t-30.5 21q-14 13 -21 30.5t-7 35.5t7 35t21 31z" />
    <glyph glyph-name="questiondown" unicode="&#xbf;" horiz-adv-x="539" 
d="M373.031 485q0 -18.9961 -7.49805 -36.4932q-7.49902 -17.4971 -19.9971 -29.9951q-12.4971 -12.4971 -29.4941 -19.9961q-16.9971 -7.49805 -36.9932 -7.49805q-18.9971 0 -36.4932 7.49805q-17.4971 7.49902 -29.9951 19.9961q-12.4971 12.498 -19.9961 29.9951
q-7.49805 17.4971 -7.49805 36.4932q0 19.9961 7.49805 36.9932q7.49902 16.9971 19.9961 29.4951q12.498 12.4971 29.9951 19.9961q17.4961 7.49805 36.4932 7.49805q19.9961 0 36.9932 -7.49805q16.9971 -7.49902 29.4941 -19.9961q12.498 -12.498 19.9971 -29.4951
q7.49805 -16.9971 7.49805 -36.9932zM373.031 221.049q0 -32.9941 -22.9951 -60.4893q-22.9961 -27.4951 -57.9902 -33.4941q-11.9971 -2.99902 -33.4932 -10.998q-21.4961 -7.99805 -35.4941 -21.9961q-15.9971 -16.9971 -13.9971 -39.9922q2 -22.9961 16.9971 -37.9932
q16.9971 -16.9971 39.4922 -17.9971q22.4961 -0.999023 39.4932 13.998q13.9971 13.9971 21.9961 35.4932q7.99805 21.4961 9.99805 33.4941q5.99902 29.9941 26.9951 50.9902q28.9941 28.9951 60.9883 28.9951t59.9893 -27.9951q20.9961 -20.9961 27.9951 -49.9912
q6.99902 -28.9941 1 -59.9883q-5.99902 -22.9961 -16.9971 -47.9912q-8.99805 -20.9961 -23.9951 -45.4922q-14.998 -24.4951 -37.9932 -47.4912q-35.9941 -34.9932 -80.4854 -52.4902q-44.4922 -17.4971 -90.4834 -17.4971q-45.9922 0 -90.4834 17.9971
q-44.4922 17.9961 -80.4854 52.9902q-34.9941 34.9932 -52.4902 76.4863q-17.4971 41.4922 -17.4971 83.9844t17.4971 83.4844q17.4961 40.9922 52.4902 76.9863q21.9961 21.9961 42.9922 37.9932t40.9922 21.9951q13.9971 7.99902 20.4961 22.4961t14.9971 28.4951
q8.49902 13.9971 22.9961 24.4951t43.4922 10.498q39.9922 -0.999023 66.9873 -27.4951q26.9951 -26.4951 26.9951 -66.4873v-34.9932z" />
    <glyph glyph-name="Agrave" unicode="&#xc0;" horiz-adv-x="604" 
d="M570 128q14 -38 -1.5 -72.5t-53.5 -48.5q-18 -7 -36.5 -6.5t-35 8t-29.5 21t-20 31.5l-13 30h-159l-12 -30q-7 -18 -20 -31.5t-29.5 -21t-35 -8t-36.5 6.5q-38 14 -53.5 48.5t-1.5 72.5l163 399q0 18 -3 36t0 33t17 24.5t47 9.5h43q27 0 49.5 -14.5t34.5 -37.5
q2 -2 2.5 -4.5t2.5 -5.5zM302 285l-31 -74h61zM319 833q27 -20 35.5 -48.5t-9.5 -57.5q-19 -29 -51.5 -31.5t-61.5 12.5l-59 31q-30 18 -37.5 50.5t10.5 61.5t50.5 37t62.5 -11z" />
    <glyph glyph-name="Aacute" unicode="&#xc1;" horiz-adv-x="602" 
d="M569 128q14 -38 -1.5 -72.5t-53.5 -48.5q-18 -7 -36.5 -6.5t-35 8t-29.5 21t-20 31.5l-13 30h-159l-12 -30q-7 -18 -20 -31.5t-29.5 -21t-35 -8t-36.5 6.5q-38 14 -53.5 48.5t-1.5 72.5l163 399q0 18 -3 36t0 33t17 24.5t47 9.5h43q27 0 49.5 -14.5t34.5 -37.5
q2 -2 2.5 -4.5t2.5 -5.5zM301 285l-31 -74h61zM331 878q30 19 62.5 11t50.5 -37t10.5 -61.5t-37.5 -50.5l-59 -31q-29 -15 -61.5 -12.5t-51.5 31.5q-18 29 -9.5 57.5t35.5 48.5z" />
    <glyph glyph-name="Acircumflex" unicode="&#xc2;" horiz-adv-x="609" 
d="M572 128q14 -38 -1.5 -72.5t-53.5 -48.5q-18 -7 -36.5 -6.5t-35 8t-29.5 21t-20 31.5l-12 26h-160l-12 -26q-7 -18 -20 -31.5t-29.5 -21t-35 -8t-36.5 6.5q-38 14 -53.5 48.5t-1.5 72.5l168 410q5 11 7 27t9 30.5t23.5 24.5t49.5 10h11q32 0 54 -19.5t36 -49.5zM304 285
l-31 -75h62zM300 752l-40 -67q-7 -12 -21.5 -18t-31.5 -6t-33.5 6t-28.5 18t-18 26.5t-6 30.5t6 31t18 27l98 89q25 23 57.5 23t55.5 -23l99 -89q24 -25 23.5 -58t-23.5 -56q-12 -12 -28 -18.5t-32.5 -6.5t-31 6.5t-22.5 18.5z" />
    <glyph glyph-name="Atilde" unicode="&#xc3;" horiz-adv-x="622" 
d="M579 128q14 -38 -1.5 -72.5t-53.5 -48.5q-18 -7 -36.5 -6.5t-35 8t-29.5 21t-20 31.5l-13 30h-159l-12 -30q-7 -18 -20 -31.5t-29.5 -21t-35 -8t-36.5 6.5q-38 14 -53.5 48.5t-1.5 72.5l163 399q0 18 -3 36t0 33t17 24.5t47 9.5h43q27 0 49.5 -14.5t34.5 -37.5
q2 -2 2.5 -4.5t2.5 -5.5zM311 285l-31 -74h61zM75 785q1 36 15.5 64t38.5 47.5t55.5 30t66.5 10.5q21 0 36 -5.5t26.5 -16.5t21 -28.5t19.5 -41.5q2 -5 4.5 -9t9.5 -4q8 0 9.5 5.5t3.5 13.5q5 31 28 48t55 17t49 -21.5t17 -53.5v-2q0 -35 -13.5 -63t-36 -47.5t-53 -30
t-65.5 -9.5q-45 1 -67.5 22.5t-42.5 67.5l-5 10t-8 4q-8 0 -10 -5t-4 -13q-8 -31 -30 -48t-54 -17t-49 21.5t-17 53.5z" />
    <glyph glyph-name="Adieresis" unicode="&#xc4;" horiz-adv-x="619" 
d="M577 128q14 -38 -1.5 -72.5t-53.5 -48.5q-18 -7 -36.5 -6.5t-35 8t-29.5 21t-20 31.5l-13 25h-159l-12 -25q-7 -18 -20 -31.5t-29.5 -21t-35 -8t-36.5 6.5q-38 14 -53.5 48.5t-1.5 72.5l163 399q0 18 -3 36t0 33t17 24.5t47 9.5h43q27 0 49.5 -14.5t34.5 -37.5
q2 -2 2.5 -4.5t2.5 -5.5zM309 285l-31 -74h61zM95 813q0 19 7.5 36.5t20 30t29.5 20t37 7.5q19 0 36.5 -7.5t30 -20t20 -30t7.5 -36.5q0 -20 -7.5 -37t-20 -29.5t-30 -20t-36.5 -7.5q-20 0 -37 7.5t-29.5 20t-20 29.5t-7.5 37zM325 813q0 19 7.5 36.5t20 30t29.5 20t37 7.5
q19 0 36.5 -7.5t30 -20t20 -30t7.5 -36.5q0 -20 -7.5 -37t-20 -29.5t-30 -20t-36.5 -7.5q-20 0 -37 7.5t-29.5 20t-20 29.5t-7.5 37z" />
    <glyph glyph-name="Aring" unicode="&#xc5;" horiz-adv-x="609" 
d="M572 128q14 -38 -1.5 -72.5t-53.5 -48.5q-18 -7 -36.5 -6.5t-35 8t-29.5 21t-20 31.5l-12 26h-160l-12 -26q-7 -18 -20 -31.5t-29.5 -21t-35 -8t-36.5 6.5q-38 14 -53.5 48.5t-1.5 72.5l168 410q5 11 7 27t9 30.5t23.5 24.5t49.5 10h11q32 0 54 -19.5t36 -49.5zM304 285
l-31 -75h62zM290 850q0 -15 13 -15q14 0 14 15t-14 15q-13 0 -13 -15zM148 850q0 32 12 60.5t33 50t49.5 34t60.5 12.5t60.5 -12.5t50 -34t34 -50t12.5 -60.5t-12.5 -60.5t-34 -49.5t-50 -33t-60.5 -12t-60.5 12t-49.5 33t-33 49.5t-12 60.5z" />
    <glyph glyph-name="AE" unicode="&#xc6;" horiz-adv-x="852" 
d="M722 630q39 0 66.5 -27t27.5 -67q0 -20 -7.5 -37t-20 -29.5t-30 -20t-36.5 -7.5h-138v-33h72q39 0 66.5 -27t27.5 -67q0 -20 -7.5 -37t-20 -29.5t-30 -20t-36.5 -7.5h-72v-33h138q39 0 66.5 -27t27.5 -67q0 -20 -7.5 -37t-20 -29.5t-30 -20t-36.5 -7.5h-232q-26 0 -52 17
t-37 44l-13 30h-159l-12 -30q-7 -18 -20 -31.5t-29.5 -21t-35 -8t-36.5 6.5q-38 14 -53.5 48.5t-1.5 72.5l163 399q0 18 -3 36t0 33t17 24.5t47 9.5h457zM309 285l-31 -74h61z" />
    <glyph glyph-name="Ccedilla" unicode="&#xc7;" horiz-adv-x="647" 
d="M191 -99q18 19 36 19q10 0 18.5 -4.5t17 -10t16.5 -10t17 -4.5q10 0 23 9t13 26q0 8 -4 15.5t-8.5 16.5t-8.5 19.5t-5 24.5q-58 7 -108.5 34.5t-87.5 69t-58 95.5t-21 114q0 65 24.5 122.5t67.5 100t100.5 67.5t122.5 25q73 0 134 -32t105 -84q27 -29 27 -66
q0 -18 -6.5 -35t-20.5 -31t-29.5 -20t-32.5 -6q-23 0 -44 10t-35 27q-18 21 -43 36t-55 15q-26 0 -49.5 -10.5t-40.5 -28.5t-27 -42t-10 -50t10 -49.5t27 -41t40.5 -28t49.5 -10.5q32 0 59.5 18t47.5 39q14 16 32.5 23t38.5 7q19 0 36.5 -6.5t28.5 -17.5q27 -29 27 -66
q0 -18 -6.5 -35t-20.5 -31q-54 -66 -134 -95q1 -12 5.5 -23.5t9 -22t8.5 -21.5t4 -23q0 -38 -15 -72t-40.5 -59.5t-59.5 -40.5t-72 -15q-22 0 -45 6.5t-42 18.5t-31 29.5t-12 40.5v6q0 16 7.5 31t18.5 26z" />
    <glyph glyph-name="Egrave" unicode="&#xc8;" horiz-adv-x="461" 
d="M352 630q39 0 66.5 -27t27.5 -67q0 -20 -7.5 -37t-20 -29.5t-30 -20t-36.5 -7.5h-138v-33h72q39 0 66.5 -27t27.5 -67q0 -20 -7.5 -37t-20 -29.5t-30 -20t-36.5 -7.5h-72v-33h138q39 0 66.5 -27t27.5 -67q0 -20 -7.5 -37t-20 -29.5t-30 -20t-36.5 -7.5h-232q-40 0 -67 27
t-27 67v435q-1 18 -5 36t-2.5 32.5t13.5 23.5t45 9h275zM252 833q27 -20 35.5 -48.5t-9.5 -57.5q-19 -29 -51.5 -31.5t-61.5 12.5l-59 31q-30 18 -37.5 50.5t10.5 61.5t50.5 37t62.5 -11z" />
    <glyph glyph-name="Eacute" unicode="&#xc9;" horiz-adv-x="461" 
d="M352 630q39 0 66.5 -27t27.5 -67q0 -20 -7.5 -37t-20 -29.5t-30 -20t-36.5 -7.5h-138v-33h72q39 0 66.5 -27t27.5 -67q0 -20 -7.5 -37t-20 -29.5t-30 -20t-36.5 -7.5h-72v-33h138q39 0 66.5 -27t27.5 -67q0 -20 -7.5 -37t-20 -29.5t-30 -20t-36.5 -7.5h-232q-40 0 -67 27
t-27 67v435q-1 18 -5 36t-2.5 32.5t13.5 23.5t45 9h275zM249 872q30 19 62.5 11t50.5 -37t10.5 -61.5t-37.5 -50.5l-59 -31q-29 -15 -61.5 -12.5t-51.5 31.5q-18 29 -9.5 57.5t35.5 48.5z" />
    <glyph glyph-name="Ecircumflex" unicode="&#xca;" horiz-adv-x="521" 
d="M381 630q39 0 66.5 -27t27.5 -67q0 -20 -7.5 -37t-20 -29.5t-30 -20t-36.5 -7.5h-138v-33h72q39 0 66.5 -27t27.5 -67q0 -20 -7.5 -37t-20 -29.5t-30 -20t-36.5 -7.5h-72v-33h138q39 0 66.5 -27t27.5 -67q0 -20 -7.5 -37t-20 -29.5t-30 -20t-36.5 -7.5h-232q-40 0 -67 27
t-27 67v435q-1 18 -5 36t-2.5 32.5t13.5 23.5t45 9h275zM261 782l-40 -67q-7 -12 -21.5 -18t-31.5 -6t-33.5 6t-28.5 18t-18 26.5t-6 30.5t6 31t18 27l98 89q25 23 57.5 23t55.5 -23l99 -89q24 -25 23.5 -58t-23.5 -56q-12 -12 -28 -18.5t-32.5 -6.5t-31 6.5t-22.5 18.5z
" />
    <glyph glyph-name="Edieresis" unicode="&#xcb;" horiz-adv-x="460" 
d="M351 630q39 0 66.5 -27t27.5 -67q0 -20 -7.5 -37t-20 -29.5t-30 -20t-36.5 -7.5h-138v-33h72q39 0 66.5 -27t27.5 -67q0 -20 -7.5 -37t-20 -29.5t-30 -20t-36.5 -7.5h-72v-33h138q39 0 66.5 -27t27.5 -67q0 -20 -7.5 -37t-20 -29.5t-30 -20t-36.5 -7.5h-232q-40 0 -67 27
t-27 67v435q-1 18 -5 36t-2.5 32.5t13.5 23.5t45 9h275zM16 814q0 19 7.5 36.5t20 30t29.5 20t37 7.5q19 0 36.5 -7.5t30 -20t20 -30t7.5 -36.5q0 -20 -7.5 -37t-20 -29.5t-30 -20t-36.5 -7.5q-20 0 -37 7.5t-29.5 20t-20 29.5t-7.5 37zM246 814q0 19 7.5 36.5t20 30
t29.5 20t37 7.5q19 0 36.5 -7.5t30 -20t20 -30t7.5 -36.5q0 -20 -7.5 -37t-20 -29.5t-30 -20t-36.5 -7.5q-20 0 -37 7.5t-29.5 20t-20 29.5t-7.5 37z" />
    <glyph glyph-name="Igrave" unicode="&#xcc;" horiz-adv-x="267" 
d="M232 94q0 -40 -27.5 -67t-66.5 -27q-40 0 -67 27t-27 67v435q-1 18 -5 36t-2.5 32.5t13.5 23.5t45 9h43q19 0 36 -7.5t29.5 -20t20 -30t8.5 -37.5v-441zM148 833q27 -20 35.5 -48.5t-9.5 -57.5q-19 -29 -51.5 -31.5t-61.5 12.5l-59 31q-30 18 -37.5 50.5t10.5 61.5
t50.5 37t62.5 -11z" />
    <glyph glyph-name="Iacute" unicode="&#xcd;" horiz-adv-x="267" 
d="M224 94q0 -40 -27.5 -67t-66.5 -27q-40 0 -67 27t-27 67v435q-1 18 -5 36t-2.5 32.5t13.5 23.5t45 9h43q19 0 36 -7.5t29.5 -20t20 -30t8.5 -37.5v-441zM130 877q30 19 62.5 11t50.5 -37t10.5 -61.5t-37.5 -50.5l-59 -31q-29 -15 -61.5 -12.5t-51.5 31.5
q-18 29 -9.5 57.5t35.5 48.5z" />
    <glyph glyph-name="Icircumflex" unicode="&#xce;" horiz-adv-x="283" 
d="M240 94q0 -40 -27.5 -67t-66.5 -27q-40 0 -67 27t-27 67v435q-1 18 -5 36t-2.5 32.5t13.5 23.5t45 9h43q19 0 36 -7.5t29.5 -20t20 -30t8.5 -37.5v-441zM143 782l-40 -67q-7 -12 -21.5 -18t-31.5 -6t-33.5 6t-28.5 18t-18 26.5t-6 30.5t6 31t18 27l98 89q25 23 57.5 23
t55.5 -23l99 -89q24 -25 23.5 -58t-23.5 -56q-12 -12 -28 -18.5t-32.5 -6.5t-31 6.5t-22.5 18.5z" />
    <glyph glyph-name="Idieresis" unicode="&#xcf;" horiz-adv-x="260" 
d="M230 94q0 -40 -27.5 -67t-66.5 -27q-40 0 -67 27t-27 67v435q-1 18 -5 36t-2.5 32.5t13.5 23.5t45 9h43q19 0 36 -7.5t29.5 -20t20 -30t8.5 -37.5v-441zM-76 816q0 19 7.5 36.5t20 30t29.5 20t37 7.5q19 0 36.5 -7.5t30 -20t20 -30t7.5 -36.5q0 -20 -7.5 -37t-20 -29.5
t-30 -20t-36.5 -7.5q-20 0 -37 7.5t-29.5 20t-20 29.5t-7.5 37zM154 816q0 19 7.5 36.5t20 30t29.5 20t37 7.5q19 0 36.5 -7.5t30 -20t20 -30t7.5 -36.5q0 -20 -7.5 -37t-20 -29.5t-30 -20t-36.5 -7.5q-20 0 -37 7.5t-29.5 20t-20 29.5t-7.5 37z" />
    <glyph glyph-name="Eth" unicode="&#xd0;" horiz-adv-x="648" 
d="M51 409v120q0 16 -4 32t-4 30q0 17 11.5 28t47.5 11h188q65 0 122.5 -25t100 -67.5t67.5 -100t25 -122.5t-25 -122.5t-67.5 -100.5t-100 -67.5t-122.5 -24.5h-145q-40 0 -67 27t-27 67v127h-7q-40 0 -67 27.5t-27 66.5q0 40 27 67t67 27h7zM417 315q0 26 -10 49t-27.5 40
t-40.5 27t-49 11l-51 2v-35h6q39 0 66.5 -27t27.5 -67q0 -20 -7.5 -37t-20 -29.5t-30 -20t-36.5 -7.5h-6v-36l51 3q26 1 49 11.5t40.5 27.5t27.5 39.5t10 48.5z" />
    <glyph glyph-name="Ntilde" unicode="&#xd1;" horiz-adv-x="657" 
d="M608 105q0 -22 -6 -42.5t-23 -36.5q-15 -14 -32.5 -20.5t-35.5 -5.5t-35 8.5t-30 22.5l-202 244l-1 -181q0 -40 -26.5 -67t-65.5 -27q-40 0 -67 27t-27 67v435q-1 18 -5 36t-2.5 32.5t13.5 23.5t45 9h43q22 0 40 -10.5t35 -28.5l1.5 -2t7 -8.5t17.5 -21t33.5 -40.5
t54.5 -65.5t81 -97.5l-1 170q0 18 -4.5 36.5t-3.5 33.5t13.5 24.5t45.5 9.5h43q18 0 35 -7.5t30 -20.5t21 -30t8 -36v-431zM101 776q1 36 15.5 64t38.5 47.5t55.5 30t66.5 10.5q21 0 36 -5.5t26.5 -16.5t21 -28.5t19.5 -41.5q2 -5 4.5 -9t9.5 -4q8 0 9.5 5.5t3.5 13.5
q5 31 28 48t55 17t49 -21.5t17 -53.5v-2q0 -35 -13.5 -63t-36 -47.5t-53 -30t-65.5 -9.5q-45 1 -67.5 22.5t-42.5 67.5l-5 10t-8 4q-8 0 -10 -5t-4 -13q-8 -31 -30 -48t-54 -17t-49 21.5t-17 53.5z" />
    <glyph glyph-name="Ograve" unicode="&#xd2;" horiz-adv-x="676" 
d="M24 315q0 65 24.5 122.5t67.5 100t100.5 67.5t122.5 25t122.5 -25t100 -67.5t67.5 -100t25 -122.5t-25 -122.5t-67.5 -100.5t-100 -67.5t-122.5 -24.5t-122.5 24.5t-100.5 67.5t-67.5 100.5t-24.5 122.5zM212 313q0 -26 10 -49t27 -41t40.5 -28.5t49.5 -10.5t49 10.5
t40.5 28.5t27.5 42t10 50t-10 49.5t-27.5 41t-40.5 28t-49 10.5t-49.5 -10.5t-40.5 -28.5t-27 -42t-10 -50zM377 832q27 -20 35.5 -48.5t-9.5 -57.5q-19 -29 -51.5 -31.5t-61.5 12.5l-59 31q-30 18 -37.5 50.5t10.5 61.5t50.5 37t62.5 -11z" />
    <glyph glyph-name="Oacute" unicode="&#xd3;" horiz-adv-x="676" 
d="M24 315q0 65 24.5 122.5t67.5 100t100.5 67.5t122.5 25t122.5 -25t100 -67.5t67.5 -100t25 -122.5t-25 -122.5t-67.5 -100.5t-100 -67.5t-122.5 -24.5t-122.5 24.5t-100.5 67.5t-67.5 100.5t-24.5 122.5zM212 313q0 -26 10 -49t27 -41t40.5 -28.5t49.5 -10.5t49 10.5
t40.5 28.5t27.5 42t10 50t-10 49.5t-27.5 41t-40.5 28t-49 10.5t-49.5 -10.5t-40.5 -28.5t-27 -42t-10 -50zM360 879q30 19 62.5 11t50.5 -37t10.5 -61.5t-37.5 -50.5l-59 -31q-29 -15 -61.5 -12.5t-51.5 31.5q-18 29 -9.5 57.5t35.5 48.5z" />
    <glyph glyph-name="Ocircumflex" unicode="&#xd4;" horiz-adv-x="684" 
d="M27 315q0 65 24.5 122.5t67.5 100t100.5 67.5t122.5 25t122.5 -25t100 -67.5t67.5 -100t25 -122.5t-25 -122.5t-67.5 -100.5t-100 -67.5t-122.5 -24.5t-122.5 24.5t-100.5 67.5t-67.5 100.5t-24.5 122.5zM215 313q0 -26 10 -49t27 -41t40.5 -28.5t49.5 -10.5t49 10.5
t40.5 28.5t27.5 42t10 50t-10 49.5t-27.5 41t-40.5 28t-49 10.5t-49.5 -10.5t-40.5 -28.5t-27 -42t-10 -50zM336 750l-40 -67q-7 -12 -21.5 -18t-31.5 -6t-33.5 6t-28.5 18t-18 26.5t-6 30.5t6 31t18 27l98 89q25 23 57.5 23t55.5 -23l99 -89q24 -25 23.5 -58t-23.5 -56
q-12 -12 -28 -18.5t-32.5 -6.5t-31 6.5t-22.5 18.5z" />
    <glyph glyph-name="Otilde" unicode="&#xd5;" horiz-adv-x="684" 
d="M27 315q0 65 24.5 122.5t67.5 100t100.5 67.5t122.5 25t122.5 -25t100 -67.5t67.5 -100t25 -122.5t-25 -122.5t-67.5 -100.5t-100 -67.5t-122.5 -24.5t-122.5 24.5t-100.5 67.5t-67.5 100.5t-24.5 122.5zM215 313q0 -26 10 -49t27 -41t40.5 -28.5t49.5 -10.5t49 10.5
t40.5 28.5t27.5 42t10 50t-10 49.5t-27.5 41t-40.5 28t-49 10.5t-49.5 -10.5t-40.5 -28.5t-27 -42t-10 -50zM96 763q1 36 15.5 64t38.5 47.5t55.5 30t66.5 10.5q21 0 36 -5.5t26.5 -16.5t21 -28.5t19.5 -41.5q2 -5 4.5 -9t9.5 -4q8 0 9.5 5.5t3.5 13.5q5 31 28 48t55 17
t49 -21.5t17 -53.5v-2q0 -35 -13.5 -63t-36 -47.5t-53 -30t-65.5 -9.5q-45 1 -67.5 22.5t-42.5 67.5l-5 10t-8 4q-8 0 -10 -5t-4 -13q-8 -31 -30 -48t-54 -17t-49 21.5t-17 53.5z" />
    <glyph glyph-name="Odieresis" unicode="&#xd6;" horiz-adv-x="676" 
d="M24 315q0 65 24.5 122.5t67.5 100t100.5 67.5t122.5 25t122.5 -25t100 -67.5t67.5 -100t25 -122.5t-25 -122.5t-67.5 -100.5t-100 -67.5t-122.5 -24.5t-122.5 24.5t-100.5 67.5t-67.5 100.5t-24.5 122.5zM212 313q0 -26 10 -49t27 -41t40.5 -28.5t49.5 -10.5t49 10.5
t40.5 28.5t27.5 42t10 50t-10 49.5t-27.5 41t-40.5 28t-49 10.5t-49.5 -10.5t-40.5 -28.5t-27 -42t-10 -50zM133 814q0 19 7.5 36.5t20 30t29.5 20t37 7.5q19 0 36.5 -7.5t30 -20t20 -30t7.5 -36.5q0 -20 -7.5 -37t-20 -29.5t-30 -20t-36.5 -7.5q-20 0 -37 7.5t-29.5 20
t-20 29.5t-7.5 37zM363 814q0 19 7.5 36.5t20 30t29.5 20t37 7.5q19 0 36.5 -7.5t30 -20t20 -30t7.5 -36.5q0 -20 -7.5 -37t-20 -29.5t-30 -20t-36.5 -7.5q-20 0 -37 7.5t-29.5 20t-20 29.5t-7.5 37z" />
    <glyph glyph-name="multiply" unicode="&#xd7;" horiz-adv-x="408" 
d="M200 155q-9 -16 -25.5 -23.5t-36 -6.5t-38.5 8.5t-33 21.5t-22 32.5t-8.5 37t6.5 35.5t24 28l6 4l-6 5q-15 13 -22.5 30t-7 35.5t8 36t21.5 31.5t33 22t38 9t35.5 -6.5t26.5 -24.5l4 -7l5 7q12 16 29 23.5t35.5 6.5t36.5 -8.5t32 -21.5t21.5 -32t8.5 -36.5t-6.5 -35.5
t-23.5 -29l-7 -5l7 -4q17 -10 24.5 -26.5t6.5 -35.5t-9 -38t-22 -33t-32 -21.5t-37 -8t-36 6.5t-28 23l-5 7z" />
    <glyph glyph-name="Oslash" unicode="&#xd8;" horiz-adv-x="686" 
d="M575 539q44 -43 69 -100.5t25 -123.5q0 -65 -25 -122.5t-67.5 -100.5t-100 -67.5t-122.5 -24.5q-14 0 -28 1.5t-28 3.5l-18 -33q-17 -37 -49 -54t-70 -5q-18 6 -33 18t-24 28t-10.5 34.5t7.5 35.5l33 60q-45 43 -70 101t-25 125q0 65 24.5 122.5t67.5 100t100.5 67.5
t122.5 25q29 0 58 -6l19 35q18 35 51.5 52.5t71.5 5.5q19 -6 33 -18t22 -28t8.5 -33.5t-7.5 -35.5zM227 313q0 -26 10 -49.5t27.5 -41t40.5 -28t49 -10.5t49 10.5t40.5 28.5t27.5 42t10 50t-10 49.5t-27.5 41t-40.5 28t-49 10.5t-49.5 -10.5t-40.5 -28.5t-27 -42t-10 -50z
" />
    <glyph glyph-name="Ugrave" unicode="&#xd9;" horiz-adv-x="561" 
d="M43 529q-1 18 -5 36t-2.5 32.5t13.5 23.5t45 9h43q38 0 65 -26.5t29 -67.5v-293q0 -23 16 -39t39 -16q21 0 38 16t17 39v286q-1 18 -5 36t-2.5 32.5t13.5 23.5t45 9h43q18 0 35 -7t30 -19.5t21 -30t8 -37.5v-293q-1 -50 -20.5 -94t-52.5 -77t-77 -52.5t-93 -19.5
q-50 0 -94.5 19t-77.5 52t-52 77.5t-19 94.5v286zM317 834q27 -20 35.5 -48.5t-9.5 -57.5q-19 -29 -51.5 -31.5t-61.5 12.5l-59 31q-30 18 -37.5 50.5t10.5 61.5t50.5 37t62.5 -11z" />
    <glyph glyph-name="Uacute" unicode="&#xda;" horiz-adv-x="525" 
d="M25 529q-1 18 -5 36t-2.5 32.5t13.5 23.5t45 9h43q38 0 65 -26.5t29 -67.5v-293q0 -23 16 -39t39 -16q21 0 38 16t17 39v286q-1 18 -5 36t-2.5 32.5t13.5 23.5t45 9h43q18 0 35 -7t30 -19.5t21 -30t8 -37.5v-293q-1 -50 -20.5 -94t-52.5 -77t-77 -52.5t-93 -19.5
q-50 0 -94.5 19t-77.5 52t-52 77.5t-19 94.5v286zM274 878q30 19 62.5 11t50.5 -37t10.5 -61.5t-37.5 -50.5l-59 -31q-29 -15 -61.5 -12.5t-51.5 31.5q-18 29 -9.5 57.5t35.5 48.5z" />
    <glyph glyph-name="Ucircumflex" unicode="&#xdb;" horiz-adv-x="584" 
d="M53 529q-1 18 -5 36t-2.5 32.5t13.5 23.5t45 9h43q38 0 65 -26.5t29 -67.5v-293q0 -23 16 -39t39 -16q21 0 38 16t17 39v286q-1 18 -5 36t-2.5 32.5t13.5 23.5t45 9h43q18 0 35 -7t30 -19.5t21 -30t8 -37.5v-293q-1 -50 -20.5 -94t-52.5 -77t-77 -52.5t-93 -19.5
q-50 0 -94.5 19t-77.5 52t-52 77.5t-19 94.5v286zM292 759l-40 -67q-7 -12 -21.5 -18t-31.5 -6t-33.5 6t-28.5 18t-18 26.5t-6 30.5t6 31t18 27l98 89q25 23 57.5 23t55.5 -23l99 -89q24 -25 23.5 -58t-23.5 -56q-12 -12 -28 -18.5t-32.5 -6.5t-31 6.5t-22.5 18.5z" />
    <glyph glyph-name="Udieresis" unicode="&#xdc;" horiz-adv-x="551" 
d="M38 529q-1 18 -5 36t-2.5 32.5t13.5 23.5t45 9h43q38 0 65 -26.5t29 -67.5v-293q0 -23 16 -39t39 -16q21 0 38 16t17 39v286q-1 18 -5 36t-2.5 32.5t13.5 23.5t45 9h43q18 0 35 -7t30 -19.5t21 -30t8 -37.5v-293q-1 -50 -20.5 -94t-52.5 -77t-77 -52.5t-93 -19.5
q-50 0 -94.5 19t-77.5 52t-52 77.5t-19 94.5v286zM68 814q0 19 7.5 36.5t20 30t29.5 20t37 7.5q19 0 36.5 -7.5t30 -20t20 -30t7.5 -36.5q0 -20 -7.5 -37t-20 -29.5t-30 -20t-36.5 -7.5q-20 0 -37 7.5t-29.5 20t-20 29.5t-7.5 37zM298 814q0 19 7.5 36.5t20 30t29.5 20
t37 7.5q19 0 36.5 -7.5t30 -20t20 -30t7.5 -36.5q0 -20 -7.5 -37t-20 -29.5t-30 -20t-36.5 -7.5q-20 0 -37 7.5t-29.5 20t-20 29.5t-7.5 37z" />
    <glyph glyph-name="Yacute" unicode="&#xdd;" horiz-adv-x="678" 
d="M338 437l154 164q13 14 30.5 21t35.5 7t35.5 -7t31.5 -21q28 -28 28 -66.5t-28 -66.5l-192 -189l-2 -185q-1 -40 -27 -67t-65 -27q-40 0 -65.5 27t-26.5 67l-2 184l-193 190q-28 28 -28 66.5t28 66.5t66.5 27.5t66.5 -27.5zM362 878q30 19 62.5 11t50.5 -37t10.5 -61.5
t-37.5 -50.5l-59 -31q-29 -15 -61.5 -12.5t-51.5 31.5q-18 29 -9.5 57.5t35.5 48.5z" />
    <glyph glyph-name="germandbls" unicode="&#xdf;" horiz-adv-x="590" 
d="M255 327q0 31 20 53t51 22h3q8 1 14 7.5t6 17.5q0 14 -8 23t-18 9h-83l1 -366q0 -19 -7 -36t-19.5 -29.5t-29.5 -20t-36 -7.5t-36 7.5t-30 20t-20.5 29.5t-7.5 36v436q-1 17 -5 35t-3 32t12.5 23.5t41.5 10.5h212q40 0 75.5 -15.5t61.5 -41.5t41.5 -61.5t15.5 -75.5
q0 -30 -12 -58t-29 -42q14 -6 27 -20.5t23.5 -32.5t16.5 -38.5t6 -38.5q0 -44 -12.5 -81.5t-37 -65.5t-60 -43.5t-82.5 -15.5q-19 0 -35.5 7.5t-29 20t-19.5 29.5t-7 36t7 36t19.5 29.5t29 20t35.5 7.5q14 0 21 11t7 21t-5 17t-12.5 11t-16 5.5t-14.5 1.5h-1q-31 0 -51 21.5
t-20 52.5z" />
    <glyph glyph-name="agrave" unicode="&#xe0;" horiz-adv-x="542" 
d="M30 242q0 50 17.5 94t48.5 77t73.5 52t92.5 19q35 0 72 -13.5t60 -33.5q8 18 26.5 31.5t38.5 13.5q27 0 41 -18.5t14 -45.5v-354q0 -27 -14 -45.5t-41 -18.5q-20 0 -38 15t-28 31q-29 -26 -62.5 -36t-68.5 -10q-50 0 -92.5 19t-73.5 52t-48.5 77t-17.5 94zM218 242
q0 -23 15 -40.5t38 -17.5t39 17.5t16 40.5t-16 40.5t-39 17.5t-38 -17.5t-15 -40.5zM295 685q27 -20 35.5 -48.5t-9.5 -57.5q-19 -29 -51.5 -31.5t-61.5 12.5l-59 31q-30 18 -37.5 50.5t10.5 61.5t50.5 37t62.5 -11z" />
    <glyph glyph-name="aacute" unicode="&#xe1;" horiz-adv-x="542" 
d="M30 242q0 50 17.5 94t48.5 77t73.5 52t92.5 19q35 0 72 -13.5t60 -33.5q8 18 26.5 31.5t38.5 13.5q27 0 41 -18.5t14 -45.5v-354q0 -27 -14 -45.5t-41 -18.5q-20 0 -38 15t-28 31q-29 -26 -62.5 -36t-68.5 -10q-50 0 -92.5 19t-73.5 52t-48.5 77t-17.5 94zM218 242
q0 -23 15 -40.5t38 -17.5t39 17.5t16 40.5t-16 40.5t-39 17.5t-38 -17.5t-15 -40.5zM298 731q30 19 62.5 11t50.5 -37t10.5 -61.5t-37.5 -50.5l-59 -31q-29 -15 -61.5 -12.5t-51.5 31.5q-18 29 -9.5 57.5t35.5 48.5z" />
    <glyph glyph-name="acircumflex" unicode="&#xe2;" horiz-adv-x="552" 
d="M34 242q0 50 17.5 94t48.5 77t73.5 52t92.5 19q35 0 72 -13.5t60 -33.5q8 18 26.5 31.5t38.5 13.5q27 0 41 -18.5t14 -45.5v-354q0 -27 -14 -45.5t-41 -18.5q-20 0 -38 15t-28 31q-29 -26 -62.5 -36t-68.5 -10q-50 0 -92.5 19t-73.5 52t-48.5 77t-17.5 94zM222 242
q0 -23 15 -40.5t38 -17.5t39 17.5t16 40.5t-16 40.5t-39 17.5t-38 -17.5t-15 -40.5zM266 607l-40 -67q-7 -12 -21.5 -18t-31.5 -6t-33.5 6t-28.5 18t-18 26.5t-6 30.5t6 31t18 27l98 89q25 23 57.5 23t55.5 -23l99 -89q24 -25 23.5 -58t-23.5 -56q-12 -12 -28 -18.5
t-32.5 -6.5t-31 6.5t-22.5 18.5z" />
    <glyph glyph-name="atilde" unicode="&#xe3;" horiz-adv-x="552" 
d="M34 242q0 50 17.5 94t48.5 77t73.5 52t92.5 19q35 0 72 -13.5t60 -33.5q8 18 26.5 31.5t38.5 13.5q27 0 41 -18.5t14 -45.5v-354q0 -27 -14 -45.5t-41 -18.5q-20 0 -38 15t-28 31q-29 -26 -62.5 -36t-68.5 -10q-50 0 -92.5 19t-73.5 52t-48.5 77t-17.5 94zM222 242
q0 -23 15 -40.5t38 -17.5t39 17.5t16 40.5t-16 40.5t-39 17.5t-38 -17.5t-15 -40.5zM48 612q1 36 15.5 64t38.5 47.5t55.5 30t66.5 10.5q21 0 36 -5.5t26.5 -16.5t21 -28.5t19.5 -41.5q2 -5 4.5 -9t9.5 -4q8 0 9.5 5.5t3.5 13.5q5 31 28 48t55 17t49 -21.5t17 -53.5v-2
q0 -35 -13.5 -63t-36 -47.5t-53 -30t-65.5 -9.5q-45 1 -67.5 22.5t-42.5 67.5l-5 10t-8 4q-8 0 -10 -5t-4 -13q-8 -31 -30 -48t-54 -17t-49 21.5t-17 53.5z" />
    <glyph glyph-name="adieresis" unicode="&#xe4;" horiz-adv-x="542" 
d="M30 242q0 50 17.5 94t48.5 77t73.5 52t92.5 19q35 0 72 -13.5t60 -33.5q8 18 26.5 31.5t38.5 13.5q27 0 41 -18.5t14 -45.5v-354q0 -27 -14 -45.5t-41 -18.5q-20 0 -38 15t-28 31q-29 -26 -62.5 -36t-68.5 -10q-50 0 -92.5 19t-73.5 52t-48.5 77t-17.5 94zM218 242
q0 -23 15 -40.5t38 -17.5t39 17.5t16 40.5t-16 40.5t-39 17.5t-38 -17.5t-15 -40.5zM59 665q0 19 7.5 36.5t20 30t29.5 20t37 7.5q19 0 36.5 -7.5t30 -20t20 -30t7.5 -36.5q0 -20 -7.5 -37t-20 -29.5t-30 -20t-36.5 -7.5q-20 0 -37 7.5t-29.5 20t-20 29.5t-7.5 37zM289 665
q0 19 7.5 36.5t20 30t29.5 20t37 7.5q19 0 36.5 -7.5t30 -20t20 -30t7.5 -36.5q0 -20 -7.5 -37t-20 -29.5t-30 -20t-36.5 -7.5q-20 0 -37 7.5t-29.5 20t-20 29.5t-7.5 37z" />
    <glyph glyph-name="aring" unicode="&#xe5;" horiz-adv-x="552" 
d="M34 242q0 50 17.5 94t48.5 77t73.5 52t92.5 19q35 0 72 -13.5t60 -33.5q8 18 26.5 31.5t38.5 13.5q27 0 41 -18.5t14 -45.5v-354q0 -27 -14 -45.5t-41 -18.5q-20 0 -38 15t-28 31q-29 -26 -62.5 -36t-68.5 -10q-50 0 -92.5 19t-73.5 52t-48.5 77t-17.5 94zM222 242
q0 -23 15 -40.5t38 -17.5t39 17.5t16 40.5t-16 40.5t-39 17.5t-38 -17.5t-15 -40.5zM262 699q0 -15 13 -15q14 0 14 15t-14 15q-13 0 -13 -15zM120 699q0 32 12 60.5t33 50t49.5 34t60.5 12.5t60.5 -12.5t50 -34t34 -50t12.5 -60.5t-12.5 -60.5t-34 -49.5t-50 -33t-60.5 -12
t-60.5 12t-49.5 33t-33 49.5t-12 60.5z" />
    <glyph glyph-name="ae" unicode="&#xe6;" horiz-adv-x="944" 
d="M36 242q0 50 17.5 94t48.5 77t73.5 52t92.5 19q35 0 72 -13.5t60 -33.5q8 18 26.5 31.5t38.5 13.5q27 0 41 -18.5t14 -45.5v-354q0 -27 -14 -45.5t-41 -18.5q-20 0 -38 15t-28 31q-29 -26 -62.5 -36t-68.5 -10q-50 0 -92.5 19t-73.5 52t-48.5 77t-17.5 94zM224 242
q0 -23 15 -40.5t38 -17.5t39 17.5t16 40.5t-16 40.5t-39 17.5t-38 -17.5t-15 -40.5zM917 252q0 -13 -6 -26t-17 -22.5t-25.5 -15.5t-30.5 -6q-27 -1 -50.5 -0.5l-47 1t-49 1t-56.5 0.5q5 -13 14 -18.5t26 -5.5q11 0 20 2.5t18.5 5.5t20 5.5t24.5 2.5q34 0 59.5 -22t25.5 -56
q0 -23 -14.5 -43t-34.5 -30q-25 -13 -57 -19t-62 -6q-50 0 -94 19t-77 52t-52 77t-19 94t19 94t52 77t77 52t94 19t94 -17.5t77 -48.5t52 -73.5t19 -92.5zM675 329q-14 0 -24.5 -7t-13.5 -18h76q-2 11 -13.5 18t-24.5 7z" />
    <glyph glyph-name="ccedilla" unicode="&#xe7;" horiz-adv-x="512" 
d="M93 -89q18 19 36 19q10 0 18.5 -4.5t17 -10t16.5 -10t17 -4.5q10 0 23 11t13 24q0 7 -4.5 13.5t-9.5 14t-9.5 16t-4.5 20.5q0 2 0.5 4t0.5 4q-39 10 -71.5 32.5t-56 53t-37 68.5t-13.5 80q0 50 19 94t51.5 76.5t76.5 52t94 19.5q32 0 60 -8t49 -18q25 -11 46 -25
q26 -21 42 -41.5t16 -49.5q0 -39 -23 -62t-63 -23q-30 0 -55 17q-11 7 -31.5 16.5t-40.5 9.5q-23 -1 -38 -18.5t-15 -39.5q0 -23 15 -40t38 -18q20 0 40.5 9.5t31.5 16.5q25 17 55 17q40 0 63 -23t23 -62q0 -29 -15.5 -55t-41.5 -43q-11 -7 -23 -12q-11 -5 -23.5 -10
t-26.5 -10q1 -11 5.5 -22t9 -23t8 -25.5t3.5 -29.5q0 -38 -14 -68t-38.5 -50t-58 -30.5t-71.5 -10.5q-22 0 -45 6.5t-42 18.5t-31 29.5t-12 40.5v6q0 16 7.5 31t18.5 26z" />
    <glyph glyph-name="egrave" unicode="&#xe8;" horiz-adv-x="525" 
d="M505 252q0 -13 -6 -26t-17 -22.5t-25.5 -15.5t-30.5 -6q-27 -1 -50.5 -0.5l-47 1t-49 1t-56.5 0.5q5 -13 14 -18.5t26 -5.5q11 0 20 2.5t18.5 5.5t20 5.5t24.5 2.5q34 0 59.5 -22t25.5 -56q0 -23 -14.5 -43t-34.5 -30q-25 -13 -57 -19t-62 -6q-50 0 -94 19t-77 52t-52 77
t-19 94t19 94t52 77t77 52t94 19t94 -17.5t77 -48.5t52 -73.5t19 -92.5zM263 329q-14 0 -24.5 -7t-13.5 -18h76q-2 11 -13.5 18t-24.5 7zM300 688q27 -20 35.5 -48.5t-9.5 -57.5q-19 -29 -51.5 -31.5t-61.5 12.5l-59 31q-30 18 -37.5 50.5t10.5 61.5t50.5 37t62.5 -11z" />
    <glyph glyph-name="eacute" unicode="&#xe9;" horiz-adv-x="525" 
d="M505 252q0 -13 -6 -26t-17 -22.5t-25.5 -15.5t-30.5 -6q-27 -1 -50.5 -0.5l-47 1t-49 1t-56.5 0.5q5 -13 14 -18.5t26 -5.5q11 0 20 2.5t18.5 5.5t20 5.5t24.5 2.5q34 0 59.5 -22t25.5 -56q0 -23 -14.5 -43t-34.5 -30q-25 -13 -57 -19t-62 -6q-50 0 -94 19t-77 52t-52 77
t-19 94t19 94t52 77t77 52t94 19t94 -17.5t77 -48.5t52 -73.5t19 -92.5zM263 329q-14 0 -24.5 -7t-13.5 -18h76q-2 11 -13.5 18t-24.5 7zM271 732q30 19 62.5 11t50.5 -37t10.5 -61.5t-37.5 -50.5l-59 -31q-29 -15 -61.5 -12.5t-51.5 31.5q-18 29 -9.5 57.5t35.5 48.5z" />
    <glyph glyph-name="ecircumflex" unicode="&#xea;" horiz-adv-x="536" 
d="M510 252q0 -13 -6 -26t-17 -22.5t-25.5 -15.5t-30.5 -6q-27 -1 -50.5 -0.5l-47 1t-49 1t-56.5 0.5q5 -13 14 -18.5t26 -5.5q11 0 20 2.5t18.5 5.5t20 5.5t24.5 2.5q34 0 59.5 -22t25.5 -56q0 -23 -14.5 -43t-34.5 -30q-25 -13 -57 -19t-62 -6q-50 0 -94 19t-77 52t-52 77
t-19 94t19 94t52 77t77 52t94 19t94 -17.5t77 -48.5t52 -73.5t19 -92.5zM268 329q-14 0 -24.5 -7t-13.5 -18h76q-2 11 -13.5 18t-24.5 7zM268 636l-40 -67q-7 -12 -21.5 -18t-31.5 -6t-33.5 6t-28.5 18t-18 26.5t-6 30.5t6 31t18 27l98 89q25 23 57.5 23t55.5 -23l99 -89
q24 -25 23.5 -58t-23.5 -56q-12 -12 -28 -18.5t-32.5 -6.5t-31 6.5t-22.5 18.5z" />
    <glyph glyph-name="edieresis" unicode="&#xeb;" horiz-adv-x="525" 
d="M505 252q0 -13 -6 -26t-17 -22.5t-25.5 -15.5t-30.5 -6q-27 -1 -50.5 -0.5l-47 1t-49 1t-56.5 0.5q5 -13 14 -18.5t26 -5.5q11 0 20 2.5t18.5 5.5t20 5.5t24.5 2.5q34 0 59.5 -22t25.5 -56q0 -23 -14.5 -43t-34.5 -30q-25 -13 -57 -19t-62 -6q-50 0 -94 19t-77 52t-52 77
t-19 94t19 94t52 77t77 52t94 19t94 -17.5t77 -48.5t52 -73.5t19 -92.5zM263 329q-14 0 -24.5 -7t-13.5 -18h76q-2 11 -13.5 18t-24.5 7zM57 665q0 19 7.5 36.5t20 30t29.5 20t37 7.5q19 0 36.5 -7.5t30 -20t20 -30t7.5 -36.5q0 -20 -7.5 -37t-20 -29.5t-30 -20t-36.5 -7.5
q-20 0 -37 7.5t-29.5 20t-20 29.5t-7.5 37zM287 665q0 19 7.5 36.5t20 30t29.5 20t37 7.5q19 0 36.5 -7.5t30 -20t20 -30t7.5 -36.5q0 -20 -7.5 -37t-20 -29.5t-30 -20t-36.5 -7.5q-20 0 -37 7.5t-29.5 20t-20 29.5t-7.5 37z" />
    <glyph glyph-name="igrave" unicode="&#xec;" 
d="M36 390q0 39 27 66.5t67 27.5q19 0 36.5 -7.5t30 -20t20 -30t7.5 -36.5v-296q0 -40 -27.5 -67t-66.5 -27q-40 0 -67 27t-27 67v296zM175 662q27 -20 35.5 -48.5t-9.5 -57.5q-19 -29 -51.5 -31.5t-61.5 12.5l-59 31q-30 18 -37.5 50.5t10.5 61.5t50.5 37t62.5 -11z" />
    <glyph glyph-name="iacute" unicode="&#xed;" 
d="M36 390q0 39 27 66.5t67 27.5q19 0 36.5 -7.5t30 -20t20 -30t7.5 -36.5v-296q0 -40 -27.5 -67t-66.5 -27q-40 0 -67 27t-27 67v296zM147 706q30 19 62.5 11t50.5 -37t10.5 -61.5t-37.5 -50.5l-59 -31q-29 -15 -61.5 -12.5t-51.5 31.5q-18 29 -9.5 57.5t35.5 48.5z" />
    <glyph glyph-name="icircumflex" unicode="&#xee;" 
d="M36 390q0 39 27 66.5t67 27.5q19 0 36.5 -7.5t30 -20t20 -30t7.5 -36.5v-296q0 -40 -27.5 -67t-66.5 -27q-40 0 -67 27t-27 67v296zM132 636l-40 -67q-7 -12 -21.5 -18t-31.5 -6t-33.5 6t-28.5 18t-18 26.5t-6 30.5t6 31t18 27l98 89q25 23 57.5 23t55.5 -23l99 -89
q24 -25 23.5 -58t-23.5 -56q-12 -12 -28 -18.5t-32.5 -6.5t-31 6.5t-22.5 18.5z" />
    <glyph glyph-name="idieresis" unicode="&#xef;" 
d="M36 390q0 39 27 66.5t67 27.5q19 0 36.5 -7.5t30 -20t20 -30t7.5 -36.5v-296q0 -40 -27.5 -67t-66.5 -27q-40 0 -67 27t-27 67v296zM-77 628q0 19 7.5 36.5t20 30t29.5 20t37 7.5q19 0 36.5 -7.5t30 -20t20 -30t7.5 -36.5q0 -20 -7.5 -37t-20 -29.5t-30 -20t-36.5 -7.5
q-20 0 -37 7.5t-29.5 20t-20 29.5t-7.5 37zM153 628q0 19 7.5 36.5t20 30t29.5 20t37 7.5q19 0 36.5 -7.5t30 -20t20 -30t7.5 -36.5q0 -20 -7.5 -37t-20 -29.5t-30 -20t-36.5 -7.5q-20 0 -37 7.5t-29.5 20t-20 29.5t-7.5 37z" />
    <glyph glyph-name="ntilde" unicode="&#xf1;" horiz-adv-x="525" 
d="M21 420q0 27 14 45.5t41 18.5q20 0 39.5 -14.5t26.5 -31.5q31 23 68.5 34.5t72.5 11.5q50 0 91 -19t70 -52t45 -77t16 -94v-149q0 -19 -7.5 -36t-20 -29.5t-29.5 -20t-36 -7.5t-36 7.5t-29.5 20t-20 29.5t-7.5 36l-2 149q0 23 -15 40.5t-38 17.5t-39 -17.5t-16 -40.5
l-2 -149q0 -19 -7.5 -36t-20 -29.5t-29.5 -20t-36 -7.5t-36 7.5t-29.5 20t-20 29.5t-7.5 36v149v178zM35 640q1 36 15.5 64t38.5 47.5t55.5 30t66.5 10.5q21 0 36 -5.5t26.5 -16.5t21 -28.5t19.5 -41.5q2 -5 4.5 -9t9.5 -4q8 0 9.5 5.5t3.5 13.5q5 31 28 48t55 17t49 -21.5
t17 -53.5v-2q0 -35 -13.5 -63t-36 -47.5t-53 -30t-65.5 -9.5q-45 1 -67.5 22.5t-42.5 67.5l-5 10t-8 4q-8 0 -10 -5t-4 -13q-8 -31 -30 -48t-54 -17t-49 21.5t-17 53.5z" />
    <glyph glyph-name="ograve" unicode="&#xf2;" horiz-adv-x="524" 
d="M21 242q0 50 19 94t52 77t77 52t94 19t94 -19t77 -52t52 -77t19 -94t-19 -94t-52 -77t-77 -52t-94 -19t-94 19t-77 52t-52 77t-19 94zM209 242q0 -23 15.5 -40.5t38.5 -17.5t38.5 17.5t15.5 40.5t-15.5 40.5t-38.5 17.5t-38.5 -17.5t-15.5 -40.5zM302 687
q27 -20 35.5 -48.5t-9.5 -57.5q-19 -29 -51.5 -31.5t-61.5 12.5l-59 31q-30 18 -37.5 50.5t10.5 61.5t50.5 37t62.5 -11z" />
    <glyph glyph-name="oacute" unicode="&#xf3;" horiz-adv-x="524" 
d="M21 242q0 50 19 94t52 77t77 52t94 19t94 -19t77 -52t52 -77t19 -94t-19 -94t-52 -77t-77 -52t-94 -19t-94 19t-77 52t-52 77t-19 94zM209 242q0 -23 15.5 -40.5t38.5 -17.5t38.5 17.5t15.5 40.5t-15.5 40.5t-38.5 17.5t-38.5 -17.5t-15.5 -40.5zM276 730q30 19 62.5 11
t50.5 -37t10.5 -61.5t-37.5 -50.5l-59 -31q-29 -15 -61.5 -12.5t-51.5 31.5q-18 29 -9.5 57.5t35.5 48.5z" />
    <glyph glyph-name="ocircumflex" unicode="&#xf4;" horiz-adv-x="540" 
d="M28 242q0 50 19 94t52 77t77 52t94 19t94 -19t77 -52t52 -77t19 -94t-19 -94t-52 -77t-77 -52t-94 -19t-94 19t-77 52t-52 77t-19 94zM216 242q0 -23 15.5 -40.5t38.5 -17.5t38.5 17.5t15.5 40.5t-15.5 40.5t-38.5 17.5t-38.5 -17.5t-15.5 -40.5zM270 607l-40 -67
q-7 -12 -21.5 -18t-31.5 -6t-33.5 6t-28.5 18t-18 26.5t-6 30.5t6 31t18 27l98 89q25 23 57.5 23t55.5 -23l99 -89q24 -25 23.5 -58t-23.5 -56q-12 -12 -28 -18.5t-32.5 -6.5t-31 6.5t-22.5 18.5z" />
    <glyph glyph-name="otilde" unicode="&#xf5;" horiz-adv-x="524" 
d="M21 242q0 50 19 94t52 77t77 52t94 19t94 -19t77 -52t52 -77t19 -94t-19 -94t-52 -77t-77 -52t-94 -19t-94 19t-77 52t-52 77t-19 94zM209 242q0 -23 15.5 -40.5t38.5 -17.5t38.5 17.5t15.5 40.5t-15.5 40.5t-38.5 17.5t-38.5 -17.5t-15.5 -40.5zM42 641q1 36 15.5 64
t38.5 47.5t55.5 30t66.5 10.5q21 0 36 -5.5t26.5 -16.5t21 -28.5t19.5 -41.5q2 -5 4.5 -9t9.5 -4q8 0 9.5 5.5t3.5 13.5q5 31 28 48t55 17t49 -21.5t17 -53.5v-2q0 -35 -13.5 -63t-36 -47.5t-53 -30t-65.5 -9.5q-45 1 -67.5 22.5t-42.5 67.5l-5 10t-8 4q-8 0 -10 -5t-4 -13
q-8 -31 -30 -48t-54 -17t-49 21.5t-17 53.5z" />
    <glyph glyph-name="odieresis" unicode="&#xf6;" horiz-adv-x="524" 
d="M21 242q0 50 19 94t52 77t77 52t94 19t94 -19t77 -52t52 -77t19 -94t-19 -94t-52 -77t-77 -52t-94 -19t-94 19t-77 52t-52 77t-19 94zM209 242q0 -23 15.5 -40.5t38.5 -17.5t38.5 17.5t15.5 40.5t-15.5 40.5t-38.5 17.5t-38.5 -17.5t-15.5 -40.5zM58 665q0 19 7.5 36.5
t20 30t29.5 20t37 7.5q19 0 36.5 -7.5t30 -20t20 -30t7.5 -36.5q0 -20 -7.5 -37t-20 -29.5t-30 -20t-36.5 -7.5q-20 0 -37 7.5t-29.5 20t-20 29.5t-7.5 37zM288 665q0 19 7.5 36.5t20 30t29.5 20t37 7.5q19 0 36.5 -7.5t30 -20t20 -30t7.5 -36.5q0 -20 -7.5 -37t-20 -29.5
t-30 -20t-36.5 -7.5q-20 0 -37 7.5t-29.5 20t-20 29.5t-7.5 37z" />
    <glyph glyph-name="divide" unicode="&#xf7;" horiz-adv-x="620" 
d="M502 416q39 0 66.5 -27t27.5 -67q0 -20 -7.5 -37t-20 -29.5t-30 -20t-36.5 -7.5h-385q-40 0 -67 27.5t-27 66.5q0 40 27 67t67 27h385zM210 94q0 19 7.5 36.5t20 30t29.5 20t37 7.5q19 0 36.5 -7.5t30 -20t20 -30t7.5 -36.5q0 -20 -7.5 -37t-20 -29.5t-30 -20t-36.5 -7.5
q-20 0 -37 7.5t-29.5 20t-20 29.5t-7.5 37zM210 550q0 19 7.5 36.5t20 30t29.5 20t37 7.5q19 0 36.5 -7.5t30 -20t20 -30t7.5 -36.5q0 -20 -7.5 -37t-20 -29.5t-30 -20t-36.5 -7.5q-20 0 -37 7.5t-29.5 20t-20 29.5t-7.5 37z" />
    <glyph glyph-name="oslash" unicode="&#xf8;" horiz-adv-x="562" 
d="M499 398q26 -32 41.5 -71.5t15.5 -84.5q0 -50 -19 -94t-52 -77t-77 -52t-94 -19h-9t-9 1l-16 -29q-17 -37 -49 -54t-70 -5q-18 6 -33 18t-24 28t-10.5 34.5t7.5 35.5l30 54q-28 32 -43.5 72.5t-15.5 86.5q0 50 19 94t52 77t77 52t94 19q5 0 10.5 -0.5t10.5 -0.5l23 41
q18 35 51.5 52.5t71.5 5.5q19 -6 33 -18t22 -28t8.5 -33.5t-7.5 -35.5zM260 242q0 -23 15.5 -40.5t38.5 -17.5t38.5 17.5t15.5 40.5t-15.5 40.5t-38.5 17.5t-38.5 -17.5t-15.5 -40.5z" />
    <glyph glyph-name="ugrave" unicode="&#xf9;" horiz-adv-x="526" 
d="M506 64q0 -27 -14 -45.5t-41 -18.5q-20 0 -39.5 14.5t-26.5 31.5q-31 -23 -68.5 -34.5t-72.5 -11.5q-50 0 -91 19t-70 52t-45 77t-16 94v149q0 19 7.5 36t20 29.5t29.5 20t36 7.5t36 -7.5t29.5 -20t20 -29.5t7.5 -36l2 -149q0 -23 15 -40.5t38 -17.5t39 17.5t16 40.5
l2 149q0 19 7.5 36t20 29.5t29.5 20t36 7.5t36 -7.5t29.5 -20t20 -29.5t7.5 -36v-149v-178zM305 688q27 -20 35.5 -48.5t-9.5 -57.5q-19 -29 -51.5 -31.5t-61.5 12.5l-59 31q-30 18 -37.5 50.5t10.5 61.5t50.5 37t62.5 -11z" />
    <glyph glyph-name="uacute" unicode="&#xfa;" horiz-adv-x="526" 
d="M506 64q0 -27 -14 -45.5t-41 -18.5q-20 0 -39.5 14.5t-26.5 31.5q-31 -23 -68.5 -34.5t-72.5 -11.5q-50 0 -91 19t-70 52t-45 77t-16 94v149q0 19 7.5 36t20 29.5t29.5 20t36 7.5t36 -7.5t29.5 -20t20 -29.5t7.5 -36l2 -149q0 -23 15 -40.5t38 -17.5t39 17.5t16 40.5
l2 149q0 19 7.5 36t20 29.5t29.5 20t36 7.5t36 -7.5t29.5 -20t20 -29.5t7.5 -36v-149v-178zM280 732q30 19 62.5 11t50.5 -37t10.5 -61.5t-37.5 -50.5l-59 -31q-29 -15 -61.5 -12.5t-51.5 31.5q-18 29 -9.5 57.5t35.5 48.5z" />
    <glyph glyph-name="ucircumflex" unicode="&#xfb;" horiz-adv-x="558" 
d="M521 64q0 -27 -14 -45.5t-41 -18.5q-20 0 -39.5 14.5t-26.5 31.5q-31 -23 -68.5 -34.5t-72.5 -11.5q-50 0 -91 19t-70 52t-45 77t-16 94v149q0 19 7.5 36t20 29.5t29.5 20t36 7.5t36 -7.5t29.5 -20t20 -29.5t7.5 -36l2 -149q0 -23 15 -40.5t38 -17.5t39 17.5t16 40.5
l2 149q0 19 7.5 36t20 29.5t29.5 20t36 7.5t36 -7.5t29.5 -20t20 -29.5t7.5 -36v-149v-178zM279 636l-40 -67q-7 -12 -21.5 -18t-31.5 -6t-33.5 6t-28.5 18t-18 26.5t-6 30.5t6 31t18 27l98 89q25 23 57.5 23t55.5 -23l99 -89q24 -25 23.5 -58t-23.5 -56q-12 -12 -28 -18.5
t-32.5 -6.5t-31 6.5t-22.5 18.5z" />
    <glyph glyph-name="udieresis" unicode="&#xfc;" horiz-adv-x="526" 
d="M506 64q0 -27 -14 -45.5t-41 -18.5q-20 0 -39.5 14.5t-26.5 31.5q-31 -23 -68.5 -34.5t-72.5 -11.5q-50 0 -91 19t-70 52t-45 77t-16 94v149q0 19 7.5 36t20 29.5t29.5 20t36 7.5t36 -7.5t29.5 -20t20 -29.5t7.5 -36l2 -149q0 -23 15 -40.5t38 -17.5t39 17.5t16 40.5
l2 149q0 19 7.5 36t20 29.5t29.5 20t36 7.5t36 -7.5t29.5 -20t20 -29.5t7.5 -36v-149v-178zM55 663q0 19 7.5 36.5t20 30t29.5 20t37 7.5q19 0 36.5 -7.5t30 -20t20 -30t7.5 -36.5q0 -20 -7.5 -37t-20 -29.5t-30 -20t-36.5 -7.5q-20 0 -37 7.5t-29.5 20t-20 29.5t-7.5 37z
M285 663q0 19 7.5 36.5t20 30t29.5 20t37 7.5q19 0 36.5 -7.5t30 -20t20 -30t7.5 -36.5q0 -20 -7.5 -37t-20 -29.5t-30 -20t-36.5 -7.5q-20 0 -37 7.5t-29.5 20t-20 29.5t-7.5 37z" />
    <glyph glyph-name="yacute" unicode="&#xfd;" horiz-adv-x="526" 
d="M506 -4q-1 -40 -14 -70.5t-33.5 -53t-46.5 -37t-52.5 -23t-51 -11t-42.5 -0.5q-33 3 -54 6t-38 12q-22 11 -37 33.5t-15 48.5q0 18 7 34t19.5 28.5t28.5 19.5t34 7q12 0 31.5 -2.5t42.5 -2.5q14 0 21.5 7.5t10.5 19.5q-38 -12 -73 -12q-50 0 -91 19t-70 52t-45 77t-16 94
v149q0 19 7.5 36t20 29.5t29.5 20t36 7.5t36 -7.5t29.5 -20t20 -29.5t7.5 -36l2 -149q0 -23 15 -40.5t38 -17.5t39 17.5t16 40.5l2 149q0 19 7.5 36t20 29.5t29.5 20t36 7.5t36 -7.5t29.5 -20t20 -29.5t7.5 -36v-395zM279 733q30 19 62.5 11t50.5 -37t10.5 -61.5
t-37.5 -50.5l-59 -31q-29 -15 -61.5 -12.5t-51.5 31.5q-18 29 -9.5 57.5t35.5 48.5z" />
    <glyph glyph-name="thorn" unicode="&#xfe;" horiz-adv-x="581" 
d="M51 544q0 19 7.5 36t20 29.5t29.5 20t36 7.5t36 -7.5t29.5 -20t20 -29.5t7.5 -36v-89q3 6 12.5 11.5t20.5 9t23 6t20 2.5q50 0 91 -19t70 -52t45 -77t16 -94t-16 -94t-45 -77t-70 -52t-91 -19q-38 0 -75 12v-53q0 -40 -27.5 -67t-66.5 -27q-40 0 -66.5 27t-26.5 67v585z
M347 242q0 23 -15 40.5t-38 17.5t-39 -17.5t-16 -40.5t16 -40.5t39 -17.5t38 17.5t15 40.5z" />
    <glyph glyph-name="ydieresis" unicode="&#xff;" horiz-adv-x="526" 
d="M506 -4q-1 -40 -14 -70.5t-33.5 -53t-46.5 -37t-52.5 -23t-51 -11t-42.5 -0.5q-33 3 -54 6t-38 12q-22 11 -37 33.5t-15 48.5q0 18 7 34t19.5 28.5t28.5 19.5t34 7q12 0 31.5 -2.5t42.5 -2.5q14 0 21.5 7.5t10.5 19.5q-38 -12 -73 -12q-50 0 -91 19t-70 52t-45 77t-16 94
v149q0 19 7.5 36t20 29.5t29.5 20t36 7.5t36 -7.5t29.5 -20t20 -29.5t7.5 -36l2 -149q0 -23 15 -40.5t38 -17.5t39 17.5t16 40.5l2 149q0 19 7.5 36t20 29.5t29.5 20t36 7.5t36 -7.5t29.5 -20t20 -29.5t7.5 -36v-395zM56 666q0 19 7.5 36.5t20 30t29.5 20t37 7.5
q19 0 36.5 -7.5t30 -20t20 -30t7.5 -36.5q0 -20 -7.5 -37t-20 -29.5t-30 -20t-36.5 -7.5q-20 0 -37 7.5t-29.5 20t-20 29.5t-7.5 37zM286 666q0 19 7.5 36.5t20 30t29.5 20t37 7.5q19 0 36.5 -7.5t30 -20t20 -30t7.5 -36.5q0 -20 -7.5 -37t-20 -29.5t-30 -20t-36.5 -7.5
q-20 0 -37 7.5t-29.5 20t-20 29.5t-7.5 37z" />
    <glyph glyph-name="Cacute" unicode="&#x106;" horiz-adv-x="647" 
d="M589 247q13 -14 20 -31t7 -35t-7 -35.5t-20 -30.5q-44 -53 -106.5 -84t-136.5 -31q-65 0 -122.5 24.5t-100.5 67.5t-67.5 100.5t-24.5 122.5t24.5 122.5t67.5 100t100.5 67.5t122.5 25q73 0 134 -32t105 -84q13 -14 20 -31t7 -35t-7 -35.5t-20 -30.5q-16 -16 -35 -22
t-38.5 -3.5t-37 12t-30.5 24.5q-18 21 -43 36t-55 15q-26 0 -49.5 -10.5t-40.5 -28.5t-27 -42t-10 -50t10 -49.5t27.5 -41t40.5 -28t49 -10.5q32 0 59.5 18t47.5 39q14 16 33 23t38 7t36 -6t29 -18zM356 877q30 19 62.5 11t50.5 -37t10.5 -61.5t-37.5 -50.5l-59 -31
q-29 -15 -61.5 -12.5t-51.5 31.5q-18 29 -9.5 57.5t35.5 48.5z" />
    <glyph glyph-name="cacute" unicode="&#x107;" horiz-adv-x="480" 
d="M14 242q0 50 19 94t51.5 76.5t76.5 52t94 19.5q32 0 60 -8t49 -18q25 -11 46 -25q26 -21 42 -41.5t16 -49.5q0 -39 -23 -62t-63 -23q-30 0 -55 17q-11 7 -31.5 16.5t-40.5 9.5q-23 -1 -38 -18.5t-15 -39.5q0 -23 15 -40t38 -18q20 0 40.5 9.5t31.5 16.5q25 17 55 17
q40 0 63 -23t23 -62q0 -29 -15.5 -55t-41.5 -43q-22 -12 -47 -22q-22 -8 -49.5 -15t-59.5 -7q-50 0 -94 19.5t-76.5 52t-51.5 76.5t-19 94zM282 732q30 19 62.5 11t50.5 -37t10.5 -61.5t-37.5 -50.5l-59 -31q-29 -15 -61.5 -12.5t-51.5 31.5q-18 29 -9.5 57.5t35.5 48.5z
" />
    <glyph glyph-name="Ccaron" unicode="&#x10c;" horiz-adv-x="627" 
d="M580 247q13 -14 20 -31t7 -35t-7 -35.5t-20 -30.5q-44 -53 -106.5 -84t-136.5 -31q-65 0 -122.5 24.5t-100.5 67.5t-67.5 100.5t-24.5 122.5t24.5 122.5t67.5 100t100.5 67.5t122.5 25q73 0 134 -32t105 -84q13 -14 20 -31t7 -35t-7 -35.5t-20 -30.5q-16 -16 -35 -22
t-38.5 -3.5t-37 12t-30.5 24.5q-18 21 -43 36t-55 15q-26 0 -49.5 -10.5t-40.5 -28.5t-27 -42t-10 -50t10 -49.5t27.5 -41t40.5 -28t49 -10.5q32 0 59.5 18t47.5 39q14 16 33 23t38 7t36 -6t29 -18zM363 890q8 13 22.5 19t31.5 6t32.5 -6t27.5 -18q24 -24 24 -57
q0 -15 -6 -30.5t-18 -27.5l-99 -89q-12 -12 -26.5 -17.5t-29.5 -5.5q-31 0 -57 23l-98 89q-24 24 -24 58t24 57q11 12 27.5 18t33.5 6t32 -6t22 -18l40 -67z" />
    <glyph glyph-name="ccaron" unicode="&#x10d;" horiz-adv-x="533" 
d="M39 242q0 50 19 94t51.5 76.5t76.5 52t94 19.5q32 0 60 -8t49 -18q25 -11 46 -25q26 -21 42 -41.5t16 -49.5q0 -39 -23 -62t-63 -23q-30 0 -55 17q-11 7 -31.5 16.5t-40.5 9.5q-23 -1 -38 -18.5t-15 -39.5q0 -23 15 -40t38 -18q20 0 40.5 9.5t31.5 16.5q25 17 55 17
q40 0 63 -23t23 -62q0 -29 -15.5 -55t-41.5 -43q-22 -12 -47 -22q-22 -8 -49.5 -15t-59.5 -7q-50 0 -94 19.5t-76.5 52t-51.5 76.5t-19 94zM317 748q8 13 22.5 19t31.5 6t32.5 -6t27.5 -18q24 -24 24 -57q0 -15 -6 -30.5t-18 -27.5l-99 -89q-12 -12 -26.5 -17.5t-29.5 -5.5
q-31 0 -57 23l-98 89q-24 24 -24 58t24 57q11 12 27.5 18t33.5 6t32 -6t22 -18l40 -67z" />
    <glyph glyph-name="Dcaron" unicode="&#x10e;" horiz-adv-x="616" 
d="M130 0q-40 0 -67 27t-27 67v435q-1 18 -5 36t-2.5 32.5t13.5 23.5t45 9h188q65 0 122.5 -25t100 -67.5t67.5 -100t25 -122.5t-25 -122.5t-67.5 -100.5t-100 -67.5t-122.5 -24.5h-145zM402 315q0 26 -10 49t-27.5 40t-40.5 27t-49 11l-51 2v-259l51 3q26 1 49 11.5
t40.5 27.5t27.5 39.5t10 48.5zM305 890q8 13 22.5 19t31.5 6t32.5 -6t27.5 -18q24 -24 24 -57q0 -15 -6 -30.5t-18 -27.5l-99 -89q-12 -12 -26.5 -17.5t-29.5 -5.5q-31 0 -57 23l-98 89q-24 24 -24 58t24 57q11 12 27.5 18t33.5 6t32 -6t22 -18l40 -67z" />
    <glyph glyph-name="Ecaron" unicode="&#x11a;" horiz-adv-x="492" 
d="M381 630q39 0 66.5 -27t27.5 -67q0 -20 -7.5 -37t-20 -29.5t-30 -20t-36.5 -7.5h-138v-33h72q39 0 66.5 -27t27.5 -67q0 -20 -7.5 -37t-20 -29.5t-30 -20t-36.5 -7.5h-72v-33h138q39 0 66.5 -27t27.5 -67q0 -20 -7.5 -37t-20 -29.5t-30 -20t-36.5 -7.5h-232q-40 0 -67 27
t-27 67v435q-1 18 -5 36t-2.5 32.5t13.5 23.5t45 9h275zM309 890q8 13 22.5 19t31.5 6t32.5 -6t27.5 -18q24 -24 24 -57q0 -15 -6 -30.5t-18 -27.5l-99 -89q-12 -12 -26.5 -17.5t-29.5 -5.5q-31 0 -57 23l-98 89q-24 24 -24 58t24 57q11 12 27.5 18t33.5 6t32 -6t22 -18
l40 -67z" />
    <glyph glyph-name="ecaron" unicode="&#x11b;" horiz-adv-x="530" 
d="M508 252q0 -13 -6 -26t-17 -22.5t-25.5 -15.5t-30.5 -6q-27 -1 -50.5 -0.5l-47 1t-49 1t-56.5 0.5q5 -13 14 -18.5t26 -5.5q11 0 20 2.5t18.5 5.5t20 5.5t24.5 2.5q34 0 59.5 -22t25.5 -56q0 -23 -14.5 -43t-34.5 -30q-25 -13 -57 -19t-62 -6q-50 0 -94 19t-77 52t-52 77
t-19 94t19 94t52 77t77 52t94 19t94 -17.5t77 -48.5t52 -73.5t19 -92.5zM266 329q-14 0 -24.5 -7t-13.5 -18h76q-2 11 -13.5 18t-24.5 7zM314 737q8 13 22.5 19t31.5 6t32.5 -6t27.5 -18q24 -24 24 -57q0 -15 -6 -30.5t-18 -27.5l-99 -89q-12 -12 -26.5 -17.5t-29.5 -5.5
q-31 0 -57 23l-98 89q-24 24 -24 58t24 57q11 12 27.5 18t33.5 6t32 -6t22 -18l40 -67z" />
    <glyph glyph-name="dotlessi" unicode="&#x131;" 
d="M36 390q0 39 27 66.5t67 27.5q19 0 36.5 -7.5t30 -20t20 -30t7.5 -36.5v-296q0 -40 -27.5 -67t-66.5 -27q-40 0 -67 27t-27 67v296z" />
    <glyph glyph-name="Ncaron" unicode="&#x147;" horiz-adv-x="551" 
d="M557 105q0 -22 -6 -42.5t-23 -36.5q-15 -14 -32.5 -20.5t-35.5 -5.5t-35 8.5t-30 22.5l-202 244l-1 -181q0 -40 -26.5 -67t-65.5 -27q-40 0 -67 27t-27 67v435q-1 18 -5 36t-2.5 32.5t13.5 23.5t45 9h43q22 0 40 -10.5t35 -28.5l1.5 -2t7 -8.5t17.5 -21t33.5 -40.5
t54.5 -65.5t81 -97.5l-1 170q0 18 -4.5 36.5t-3.5 33.5t13.5 24.5t45.5 9.5h43q18 0 35 -7.5t30 -20.5t21 -30t8 -36v-431zM310 893q8 13 22.5 19t31.5 6t32.5 -6t27.5 -18q24 -24 24 -57q0 -15 -6 -30.5t-18 -27.5l-99 -89q-12 -12 -26.5 -17.5t-29.5 -5.5q-31 0 -57 23
l-98 89q-24 24 -24 58t24 57q11 12 27.5 18t33.5 6t32 -6t22 -18l40 -67z" />
    <glyph glyph-name="ncaron" unicode="&#x148;" horiz-adv-x="547" 
d="M32 420q0 27 14 45.5t41 18.5q20 0 39.5 -14.5t26.5 -31.5q31 23 68.5 34.5t72.5 11.5q50 0 91 -19t70 -52t45 -77t16 -94v-149q0 -19 -7.5 -36t-20 -29.5t-29.5 -20t-36 -7.5t-36 7.5t-29.5 20t-20 29.5t-7.5 36l-2 149q0 23 -15 40.5t-38 17.5t-39 -17.5t-16 -40.5
l-2 -149q0 -19 -7.5 -36t-20 -29.5t-29.5 -20t-36 -7.5t-36 7.5t-29.5 20t-20 29.5t-7.5 36v149v178zM314 744q8 13 22.5 19t31.5 6t32.5 -6t27.5 -18q24 -24 24 -57q0 -15 -6 -30.5t-18 -27.5l-99 -89q-12 -12 -26.5 -17.5t-29.5 -5.5q-31 0 -57 23l-98 89q-24 24 -24 58
t24 57q11 12 27.5 18t33.5 6t32 -6t22 -18l40 -67z" />
    <glyph glyph-name="OE" unicode="&#x152;" horiz-adv-x="929" 
d="M33 315q0 65 24.5 122.5t67.5 100t100.5 67.5t122.5 25t122.5 -25t100 -67.5t67.5 -100t25 -122.5t-25 -122.5t-67.5 -100.5t-100 -67.5t-122.5 -24.5t-122.5 24.5t-100.5 67.5t-67.5 100.5t-24.5 122.5zM221 313q0 -26 10 -49t27 -41t40.5 -28.5t49.5 -10.5t49 10.5
t40.5 28.5t27.5 42t10 50t-10 49.5t-27.5 41t-40.5 28t-49 10.5t-49.5 -10.5t-40.5 -28.5t-27 -42t-10 -50zM801 630q39 0 66.5 -27t27.5 -67q0 -20 -7.5 -37t-20 -29.5t-30 -20t-36.5 -7.5h-138v-33h72q39 0 66.5 -27t27.5 -67q0 -20 -7.5 -37t-20 -29.5t-30 -20
t-36.5 -7.5h-72v-33h138q39 0 66.5 -27t27.5 -67q0 -20 -7.5 -37t-20 -29.5t-30 -20t-36.5 -7.5h-232q-40 0 -67 27t-27 67v435q-1 18 -5 36t-2.5 32.5t13.5 23.5t45 9h275z" />
    <glyph glyph-name="oe" unicode="&#x153;" horiz-adv-x="840" 
d="M29 252q0 50 19 94t52 77t77 52t94 19t94 -19t77 -52t52 -77t19 -94t-19 -94t-52 -77t-77 -52t-94 -19t-94 19t-77 52t-52 77t-19 94zM217 252q0 -23 15.5 -40.5t38.5 -17.5t38.5 17.5t15.5 40.5t-15.5 40.5t-38.5 17.5t-38.5 -17.5t-15.5 -40.5zM810 252q0 -13 -6 -26
t-17 -22.5t-25.5 -15.5t-30.5 -6q-27 -1 -50.5 -0.5l-47 1t-49 1t-56.5 0.5q5 -13 14 -18.5t26 -5.5q11 0 20 2.5t18.5 5.5t20 5.5t24.5 2.5q34 0 59.5 -22t25.5 -56q0 -23 -14.5 -43t-34.5 -30q-25 -13 -57 -19t-62 -6q-50 0 -94 19t-77 52t-52 77t-19 94t19 94t52 77
t77 52t94 19t94 -17.5t77 -48.5t52 -73.5t19 -92.5zM568 329q-14 0 -24.5 -7t-13.5 -18h76q-2 11 -13.5 18t-24.5 7z" />
    <glyph glyph-name="Rcaron" unicode="&#x158;" horiz-adv-x="512" 
d="M212 130v-36q0 -40 -27.5 -67t-66.5 -27q-40 0 -67 27t-27 67v442q-1 18 -5 36t-2.5 32.5t13.5 23.5t45 9h190q52 0 98.5 -20t81 -54.5t54.5 -81t20 -98.5q0 -30 -9 -59t-24.5 -55t-36 -47t-43.5 -34l46 -26q16 -11 23 -28t7 -35.5t-7.5 -37.5t-20.5 -33q-28 -27 -66 -28
t-67 28zM333 381q0 27 -20.5 46.5t-47.5 20.5l-53 2v-135l53 2q27 1 47.5 19t20.5 45zM267 888q8 13 22.5 19t31.5 6t32.5 -6t27.5 -18q24 -24 24 -57q0 -15 -6 -30.5t-18 -27.5l-99 -89q-12 -12 -26.5 -17.5t-29.5 -5.5q-31 0 -57 23l-98 89q-24 24 -24 58t24 57
q11 12 27.5 18t33.5 6t32 -6t22 -18l40 -67z" />
    <glyph glyph-name="rcaron" unicode="&#x159;" horiz-adv-x="443" 
d="M55 420q0 27 14 45.5t41 18.5q20 0 39.5 -14.5t26.5 -31.5q28 23 57 34.5t64 11.5q33 0 49 -4.5t33 -13.5q22 -11 37 -33.5t15 -48.5q0 -18 -7 -34t-19.5 -28.5t-28.5 -19.5t-34 -7q-12 0 -26.5 2.5t-37.5 2.5t-29 -17.5t-6 -40.5l-2 -149q0 -19 -7.5 -36t-20 -29.5
t-29.5 -20t-36 -7.5t-36 7.5t-29.5 20t-20 29.5t-7.5 36v327zM275 747q8 13 22.5 19t31.5 6t32.5 -6t27.5 -18q24 -24 24 -57q0 -15 -6 -30.5t-18 -27.5l-99 -89q-12 -12 -26.5 -17.5t-29.5 -5.5q-31 0 -57 23l-98 89q-24 24 -24 58t24 57q11 12 27.5 18t33.5 6t32 -6
t22 -18l40 -67z" />
    <glyph glyph-name="Sacute" unicode="&#x15a;" horiz-adv-x="510" 
d="M42 455q4 37 20 69t44.5 55.5t68 37t89.5 13.5q19 0 44.5 -5.5t51 -16t49 -26t38.5 -34.5q12 -14 17.5 -31.5t4.5 -36t-7.5 -35.5t-19.5 -30q-14 -14 -32 -20.5t-37 -7t-37.5 5.5t-33.5 18q-6 5 -10 12.5t-8.5 14.5t-11.5 12t-19 5q-15 0 -23 -4.5t-9 -11t4 -13.5t14 -12
l111 -63q44 -21 72 -46t42.5 -50.5t17.5 -51t-3 -48.5q-8 -41 -32.5 -70.5t-55.5 -48t-64.5 -27.5t-60.5 -9q-63 -1 -99 11.5t-58 29.5q-21 16 -37.5 36.5t-24.5 43t-5 45t20 42.5q9 11 26.5 19t38 9t42 -7.5t39.5 -30.5q14 -18 31 -20.5t25 -0.5q16 3 17 19t-17 27
q-19 12 -58.5 32.5t-91.5 45.5q-11 5 -25.5 14.5t-26 27t-18 44.5t-2.5 68zM284 879q30 19 62.5 11t50.5 -37t10.5 -61.5t-37.5 -50.5l-59 -31q-29 -15 -61.5 -12.5t-51.5 31.5q-18 29 -9.5 57.5t35.5 48.5z" />
    <glyph glyph-name="sacute" unicode="&#x15b;" horiz-adv-x="472" 
d="M245 0q-32 0 -70 9.5t-70.5 27t-54 43t-21.5 57.5t22 55t55 23q22 0 44.5 -9t43 -20t38 -20t31.5 -9q6 0 10 3t4 5q0 5 -16.5 11.5t-40.5 15t-53 21t-53 29.5t-40.5 40t-16.5 54q0 22 10 48t32.5 48t58.5 37t89 15q40 0 77 -7.5t65 -22.5t44.5 -36.5t16.5 -49.5
q0 -21 -8 -36t-20 -25t-26 -15t-27 -5q-19 0 -35.5 6.5t-30.5 14t-25 14t-20 6.5q-7 0 -9 -3t-2 -6t11.5 -8.5t28.5 -12t36 -13t33 -12.5q12 -5 31 -15.5t36 -27t29.5 -39.5t12.5 -52q0 -37 -18.5 -63.5t-49.5 -43t-70.5 -24.5t-81.5 -8zM267 732q30 19 62.5 11t50.5 -37
t10.5 -61.5t-37.5 -50.5l-59 -31q-29 -15 -61.5 -12.5t-51.5 31.5q-18 29 -9.5 57.5t35.5 48.5z" />
    <glyph glyph-name="Scaron" unicode="&#x160;" horiz-adv-x="538" 
d="M55 455q4 37 20 69t44.5 55.5t68 37t89.5 13.5q19 0 44.5 -5.5t51 -16t49 -26t38.5 -34.5q12 -14 17.5 -31.5t4.5 -36t-7.5 -35.5t-19.5 -30q-14 -14 -32 -20.5t-37 -7t-37.5 5.5t-33.5 18q-6 5 -10 12.5t-8.5 14.5t-11.5 12t-19 5q-15 0 -23 -4.5t-9 -11t4 -13.5t14 -12
l111 -63q44 -21 72 -46t42.5 -50.5t17.5 -51t-3 -48.5q-8 -41 -32.5 -70.5t-55.5 -48t-64.5 -27.5t-60.5 -9q-63 -1 -99 11.5t-58 29.5q-21 16 -37.5 36.5t-24.5 43t-5 45t20 42.5q9 11 26.5 19t38 9t42 -7.5t39.5 -30.5q14 -18 31 -20.5t25 -0.5q16 3 17 19t-17 27
q-19 12 -58.5 32.5t-91.5 45.5q-11 5 -25.5 14.5t-26 27t-18 44.5t-2.5 68zM312 914q8 13 22.5 19t31.5 6t32.5 -6t27.5 -18q24 -24 24 -57q0 -15 -6 -30.5t-18 -27.5l-99 -89q-12 -12 -26.5 -17.5t-29.5 -5.5q-31 0 -57 23l-98 89q-24 24 -24 58t24 57q11 12 27.5 18
t33.5 6t32 -6t22 -18l40 -67z" />
    <glyph glyph-name="scaron" unicode="&#x161;" horiz-adv-x="491" 
d="M243 0q-32 0 -70 9.5t-70.5 27t-54 43t-21.5 57.5t22 55t55 23q22 0 44.5 -9t43 -20t38 -20t31.5 -9q6 0 10 3t4 5q0 5 -16.5 11.5t-40.5 15t-53 21t-53 29.5t-40.5 40t-16.5 54q0 22 10 48t32.5 48t58.5 37t89 15q40 0 77 -7.5t65 -22.5t44.5 -36.5t16.5 -49.5
q0 -21 -8 -36t-20 -25t-26 -15t-27 -5q-19 0 -35.5 6.5t-30.5 14t-25 14t-20 6.5q-7 0 -9 -3t-2 -6t11.5 -8.5t28.5 -12t36 -13t33 -12.5q12 -5 31 -15.5t36 -27t29.5 -39.5t12.5 -52q0 -37 -18.5 -63.5t-49.5 -43t-70.5 -24.5t-81.5 -8zM293 770q8 13 22.5 19t31.5 6
t32.5 -6t27.5 -18q24 -24 24 -57q0 -15 -6 -30.5t-18 -27.5l-99 -89q-12 -12 -26.5 -17.5t-29.5 -5.5q-31 0 -57 23l-98 89q-24 24 -24 58t24 57q11 12 27.5 18t33.5 6t32 -6t22 -18l40 -67z" />
    <glyph glyph-name="Tcaron" unicode="&#x164;" horiz-adv-x="525" 
d="M416 630q39 0 66.5 -27t27.5 -67q0 -20 -7.5 -37t-20 -29.5t-30 -20t-36.5 -7.5h-59l-2 -348q0 -40 -26.5 -67t-65.5 -27q-40 0 -66 27t-26 67l-2 348h-59q-40 0 -67 27.5t-27 66.5q0 40 27 67t67 27h306zM300 893q8 13 22.5 19t31.5 6t32.5 -6t27.5 -18q24 -24 24 -57
q0 -15 -6 -30.5t-18 -27.5l-99 -89q-12 -12 -26.5 -17.5t-29.5 -5.5q-31 0 -57 23l-98 89q-24 24 -24 58t24 57q11 12 27.5 18t33.5 6t32 -6t22 -18l40 -67z" />
    <glyph glyph-name="Ydieresis" unicode="&#x178;" horiz-adv-x="684" 
d="M341 437l154 164q13 14 30.5 21t35.5 7t35.5 -7t31.5 -21q28 -28 28 -66.5t-28 -66.5l-192 -189l-2 -185q-1 -40 -27 -67t-65 -27q-40 0 -65.5 27t-26.5 67l-2 184l-193 190q-28 28 -28 66.5t28 66.5t66.5 27.5t66.5 -27.5zM130 814q0 19 7.5 36.5t20 30t29.5 20t37 7.5
q19 0 36.5 -7.5t30 -20t20 -30t7.5 -36.5q0 -20 -7.5 -37t-20 -29.5t-30 -20t-36.5 -7.5q-20 0 -37 7.5t-29.5 20t-20 29.5t-7.5 37zM360 814q0 19 7.5 36.5t20 30t29.5 20t37 7.5q19 0 36.5 -7.5t30 -20t20 -30t7.5 -36.5q0 -20 -7.5 -37t-20 -29.5t-30 -20t-36.5 -7.5
q-20 0 -37 7.5t-29.5 20t-20 29.5t-7.5 37z" />
    <glyph glyph-name="zacute" unicode="&#x17a;" horiz-adv-x="564" 
d="M427 484q19 0 36 -7t29.5 -19.5t19.5 -29.5t7 -36t-7 -35t-19 -29q-9 -11 -36 -35t-56 -48q-34 -29 -74 -61q28 -5 57.5 -1.5t52.5 3.5q19 0 36 -7t29.5 -20t19.5 -30t7 -36t-7 -36t-19.5 -29.5t-29.5 -20t-36 -7.5h-310q-20 0 -36.5 7t-29 19.5t-19.5 29.5t-7 36
q0 49 34 78q4 5 17 16.5t30 25.5t36 29.5t35.5 28.5t27 21t11.5 9q-7 2 -18 2t-24 -1t-25.5 -2t-21.5 -1q-20 0 -36.5 7.5t-29 20t-19.5 29.5t-7 36q0 39 26.5 66t65.5 27h290zM321 733q30 19 62.5 11t50.5 -37t10.5 -61.5t-37.5 -50.5l-59 -31q-29 -15 -61.5 -12.5
t-51.5 31.5q-18 29 -9.5 57.5t35.5 48.5z" />
    <glyph glyph-name="Zcaron" unicode="&#x17d;" horiz-adv-x="598" 
d="M463 630q39 0 66.5 -27t27.5 -67q0 -18 -7 -36t-19 -34l-213 -280q3 -5 22 -5t43 1.5t46.5 3.5t33.5 2q39 0 66.5 -27t27.5 -67q0 -20 -7.5 -37t-20 -29.5t-30 -20t-36.5 -7.5h-329q-17 0 -35 7.5t-32 21.5q-28 28 -27 66t24 68q53 70 105.5 139.5t106.5 140.5
q-4 6 -23.5 7t-43.5 -1t-46 -4.5t-29 -2.5q-40 0 -67 27.5t-27 66.5q0 40 27 67t67 27h329zM357 916q8 13 22.5 19t31.5 6t32.5 -6t27.5 -18q24 -24 24 -57q0 -15 -6 -30.5t-18 -27.5l-99 -89q-12 -12 -26.5 -17.5t-29.5 -5.5q-31 0 -57 23l-98 89q-24 24 -24 58t24 57
q11 12 27.5 18t33.5 6t32 -6t22 -18l40 -67z" />
    <glyph glyph-name="zcaron" unicode="&#x17e;" horiz-adv-x="557" 
d="M424 484q19 0 36 -7t29.5 -19.5t19.5 -29.5t7 -36t-7 -35t-19 -29q-9 -11 -36 -35t-56 -48q-34 -29 -74 -61q28 -5 57.5 -1.5t52.5 3.5q19 0 36 -7t29.5 -20t19.5 -30t7 -36t-7 -36t-19.5 -29.5t-29.5 -20t-36 -7.5h-310q-20 0 -36.5 7t-29 19.5t-19.5 29.5t-7 36
q0 49 34 78q4 5 17 16.5t30 25.5t36 29.5t35.5 28.5t27 21t11.5 9q-7 2 -18 2t-24 -1t-25.5 -2t-21.5 -1q-20 0 -36.5 7.5t-29 20t-19.5 29.5t-7 36q0 39 26.5 66t65.5 27h290zM331 770q8 13 22.5 19t31.5 6t32.5 -6t27.5 -18q24 -24 24 -57q0 -15 -6 -30.5t-18 -27.5
l-99 -89q-12 -12 -26.5 -17.5t-29.5 -5.5q-31 0 -57 23l-98 89q-24 24 -24 58t24 57q11 12 27.5 18t33.5 6t32 -6t22 -18l40 -67z" />
    <glyph glyph-name="circumflex" unicode="&#x2c6;" horiz-adv-x="412" 
d="M208 636l-40 -67q-7 -12 -21.5 -18t-31.5 -6t-33.5 6t-28.5 18t-18 26.5t-6 30.5t6 31t18 27l98 89q25 23 57.5 23t55.5 -23l99 -89q24 -25 23.5 -58t-23.5 -56q-12 -12 -28 -18.5t-32.5 -6.5t-31 6.5t-22.5 18.5z" />
    <glyph glyph-name="caron" unicode="&#x2c7;" horiz-adv-x="413" 
d="M249 770q8 13 22.5 19t31.5 6t32.5 -6t27.5 -18q24 -24 24 -57q0 -15 -6 -30.5t-18 -27.5l-99 -89q-12 -12 -26.5 -17.5t-29.5 -5.5q-31 0 -57 23l-98 89q-24 24 -24 58t24 57q11 12 27.5 18t33.5 6t32 -6t22 -18l40 -67z" />
    <glyph glyph-name="breve" unicode="&#x2d8;" horiz-adv-x="413" 
d="M168 761q1 -17 5 -29q4 -11 12 -19.5t23 -8.5t23 8.5t12 19.5q4 12 6 28q0 6 5.5 12t13.5 11t17.5 8.5t17.5 3.5q17 0 32.5 -6t27.5 -18q24 -24 24 -57q0 -32 -14.5 -60.5t-39.5 -51t-57 -35.5t-68 -13q-35 0 -67.5 13t-57 35.5t-39.5 51t-15 60.5q0 34 24 57
q11 12 27.5 18t33.5 6q9 0 18.5 -3t17.5 -8t13 -11t5 -12z" />
    <glyph glyph-name="dotaccent" unicode="&#x2d9;" horiz-adv-x="413" 
d="M115 637q0 39 27 65.5t67 26.5q39 0 66.5 -26.5t27.5 -65.5q0 -40 -27.5 -66t-66.5 -26q-40 0 -67 26t-27 66z" />
    <glyph glyph-name="ring" unicode="&#x2da;" horiz-adv-x="413" 
d="M194 699q0 -15 13 -15q14 0 14 15t-14 15q-13 0 -13 -15zM52 699q0 32 12 60.5t33 50t49.5 34t60.5 12.5t60.5 -12.5t50 -34t34 -50t12.5 -60.5t-12.5 -60.5t-34 -49.5t-50 -33t-60.5 -12t-60.5 12t-49.5 33t-33 49.5t-12 60.5z" />
    <glyph glyph-name="ogonek" unicode="&#x2db;" horiz-adv-x="386" 
d="M328 -99q11 -11 18.5 -26t7.5 -31v-6q0 -23 -12 -40.5t-31 -29.5t-42 -18.5t-45 -6.5q-38 0 -72 15t-59.5 40.5t-40.5 59.5t-15 72q0 23 6.5 46t18.5 42t30.5 30.5t42.5 11.5q16 0 30.5 -6t25.5 -16t17 -21.5t6 -21.5q0 -11 -4 -20t-9.5 -17t-9.5 -16t-4 -16
q0 -13 13 -24t23 -11q9 0 17 4.5t16.5 10t17 10t18.5 4.5q18 0 36 -19z" />
    <glyph glyph-name="tilde" unicode="&#x2dc;" horiz-adv-x="522" 
d="M41 753q1 36 15.5 64t38.5 47.5t55.5 30t66.5 10.5q21 0 36 -5.5t26.5 -16.5t21 -28.5t19.5 -41.5q2 -5 4.5 -9t9.5 -4q8 0 9.5 5.5t3.5 13.5q5 31 28 48t55 17t49 -21.5t17 -53.5v-2q0 -35 -13.5 -63t-36 -47.5t-53 -30t-65.5 -9.5q-45 1 -67.5 22.5t-42.5 67.5l-5 10
t-8 4q-8 0 -10 -5t-4 -13q-8 -31 -30 -48t-54 -17t-49 21.5t-17 53.5z" />
    <glyph glyph-name="hungarumlaut" unicode="&#x2dd;" horiz-adv-x="556" 
d="M125 706q20 13 44 13q20 0 39 -10t30 -29q13 -21 13 -43q0 -20 -10 -38.5t-30 -30.5l-59 -31q-26 -13 -51 -13q-18 0 -34.5 7.5t-27.5 24.5q-12 19 -12 40q0 39 38 66zM363 706q20 13 44 13q20 0 39 -10t30 -29q13 -21 13 -43q0 -20 -10 -38.5t-30 -30.5l-59 -31
q-26 -13 -51 -13q-18 0 -34.5 7.5t-27.5 24.5q-12 19 -12 40q0 39 38 66z" />
    <glyph glyph-name="endash" unicode="&#x2013;" horiz-adv-x="457" 
d="M329 395q39 0 66.5 -27t27.5 -67q0 -20 -7.5 -37t-20 -29.5t-30 -20t-36.5 -7.5h-201q-40 0 -67 27.5t-27 66.5q0 40 27 67t67 27h201z" />
    <glyph glyph-name="emdash" unicode="&#x2014;" horiz-adv-x="540" 
d="M411 395q39 0 66.5 -27t27.5 -67q0 -20 -7.5 -37t-20 -29.5t-30 -20t-36.5 -7.5h-282q-40 0 -67 27.5t-27 66.5q0 40 27 67t67 27h282z" />
    <glyph glyph-name="quoteleft" unicode="&#x2018;" horiz-adv-x="287" 
d="M216 457q-7 -18 -20 -31t-29.5 -19.5t-35 -7t-36.5 7.5q-18 7 -31.5 20t-21 29t-8 34.5t7.5 36.5q12 28 33.5 50t47.5 35t53.5 17t51.5 -4q19 -6 22.5 -26t-2 -45.5t-15.5 -51.5t-17 -45z" />
    <glyph glyph-name="quoteright" unicode="&#x2019;" horiz-adv-x="286" 
d="M70 572q7 18 20 31t29.5 19.5t35 6.5t36.5 -7t31.5 -20t21 -29t8 -34.5t-7.5 -36.5q-12 -28 -33.5 -50t-47.5 -35t-53.5 -17t-51.5 4q-19 6 -22.5 26t2 45.5t15 51.5t17.5 45z" />
    <glyph glyph-name="quotesinglbase" unicode="&#x201a;" horiz-adv-x="243" 
d="M27 92q0 39 27 65.5t67 26.5q19 0 36.5 -7t30.5 -19.5t20 -29.5t7 -36q-1 -30 -13 -58.5t-31.5 -50.5t-43.5 -36t-49 -15q-20 -1 -30.5 16.5t-15 42.5t-5 53t-0.5 48z" />
    <glyph glyph-name="quotedblleft" unicode="&#x201c;" horiz-adv-x="534" 
d="M224 457q-7 -18 -20 -31t-29.5 -19.5t-35 -7t-36.5 7.5q-18 7 -31.5 20t-21 29t-8 34.5t7.5 36.5q12 28 33.5 50t47.5 35t53.5 17t51.5 -4q19 -6 22.5 -26t-2 -45.5t-15.5 -51.5t-17 -45zM464 457q-7 -18 -20 -31t-29.5 -19.5t-35 -7t-36.5 7.5q-18 7 -31.5 20t-21 29
t-8 34.5t7.5 36.5q12 28 33.5 50t47.5 35t53.5 17t51.5 -4q19 -6 22.5 -26t-2 -45.5t-15.5 -51.5t-17 -45z" />
    <glyph glyph-name="quotedblright" unicode="&#x201d;" horiz-adv-x="535" 
d="M79 572q7 18 20 31t29.5 19.5t35 6.5t36.5 -7t31.5 -20t21 -29t8 -34.5t-7.5 -36.5q-12 -28 -33.5 -50t-47.5 -35t-53.5 -17t-51.5 4q-19 6 -22.5 26t2 45.5t15 51.5t17.5 45zM321 572q7 18 20 31t29.5 19.5t35 6.5t36.5 -7t31.5 -20t21 -29t8 -34.5t-7.5 -36.5
q-12 -28 -33.5 -50t-47.5 -35t-53.5 -17t-51.5 4q-19 6 -22.5 26t2 45.5t15 51.5t17.5 45z" />
    <glyph glyph-name="quotedblbase" unicode="&#x201e;" horiz-adv-x="497" 
d="M34 92q0 39 27 65.5t67 26.5q19 0 36.5 -7t30.5 -19.5t20 -29.5t7 -36q-1 -30 -13 -58.5t-31.5 -50.5t-43.5 -36t-49 -15q-20 -1 -30.5 16.5t-15 42.5t-5 53t-0.5 48zM262 92q0 39 27 65.5t67 26.5q19 0 36.5 -7t30.5 -19.5t20 -29.5t7 -36q-1 -30 -13 -58.5t-31.5 -50.5
t-43.5 -36t-49 -15q-20 -1 -30.5 16.5t-15 42.5t-5 53t-0.5 48z" />
    <glyph glyph-name="dagger" unicode="&#x2020;" horiz-adv-x="415" 
d="M308 465q39 0 66.5 -22t27.5 -62q0 -20 -7.5 -38.5t-20 -33t-30 -23.5t-36.5 -9h-7l-30 -330q-2 -21 -5 -38.5t-9.5 -29.5t-18.5 -19t-31 -7q-20 0 -31.5 7.5t-18.5 20t-9.5 29.5t-4.5 37l-30 330h-6q-20 0 -37 9t-30 23.5t-20 33t-7 38.5q0 40 27 62t67 22h6v78
q0 39 27 66.5t67 27.5q19 0 36.5 -7.5t30 -20t20 -30t7.5 -36.5v-78h7z" />
    <glyph glyph-name="daggerdbl" unicode="&#x2021;" horiz-adv-x="429" 
d="M315 465q39 0 66.5 -27t27.5 -67q0 -20 -7.5 -37t-20 -29.5t-30 -20t-36.5 -7.5h-7v-32h7q39 0 66.5 -27t27.5 -67q0 -20 -7.5 -37t-20 -29.5t-30 -20t-36.5 -7.5h-7l-10 -110q-4 -40 -24.5 -67t-59.5 -27q-40 0 -60 27t-24 67l-10 110h-6q-40 0 -67 27.5t-27 66.5
q0 40 27 67t67 27h6v32h-6q-40 0 -67 27.5t-27 66.5q0 40 27 67t67 27h6v78q0 39 27 66.5t67 27.5q19 0 36.5 -7.5t30 -20t20 -30t7.5 -36.5v-78h7z" />
    <glyph glyph-name="bullet" unicode="&#x2022;" horiz-adv-x="356" 
d="M60 287q0 26 9.5 49t26.5 39.5t40 26t50 9.5q26 0 49 -9.5t40.5 -26t27.5 -39.5t10 -49q0 -27 -10 -49.5t-27.5 -39t-40.5 -26t-49 -9.5q-27 0 -50 9.5t-40 26t-26.5 39t-9.5 49.5z" />
    <glyph glyph-name="ellipsis" unicode="&#x2026;" horiz-adv-x="715" 
d="M36 94q0 19 7.5 36.5t20 30t29.5 20t37 7.5q39 0 66.5 -27.5t27.5 -66.5q0 -20 -7.5 -37t-20 -29.5t-30 -20t-36.5 -7.5q-39 0 -66.5 27.5t-27.5 66.5zM264 94q0 19 7.5 36.5t20 30t29.5 20t37 7.5q19 0 36.5 -7.5t30 -20t20 -30t7.5 -36.5q0 -20 -7.5 -37t-20 -29.5
t-30 -20t-36.5 -7.5q-20 0 -37 7.5t-29.5 20t-20 29.5t-7.5 37zM492 94q0 19 7.5 36.5t20 30t29.5 20t37 7.5q19 0 36.5 -7.5t30 -20t20 -30t7.5 -36.5q0 -20 -7.5 -37t-20 -29.5t-30 -20t-36.5 -7.5q-20 0 -37 7.5t-29.5 20t-20 29.5t-7.5 37z" />
    <glyph glyph-name="perthousand" unicode="&#x2030;" horiz-adv-x="1068" 
d="M399 67q-12 -38 -46 -55.5t-72 -5.5q-18 6 -32.5 18t-22.5 27.5t-10 34.5t4 38l140 440q6 18 18 32.5t28 22.5t34.5 10t37.5 -4t33 -18t22.5 -28t10 -34.5t-4.5 -37.5zM16 493q0 28 10.5 53t29 44t43 29.5t53.5 10.5q28 0 53 -10.5t44 -29.5t29.5 -44t10.5 -53
q0 -29 -10.5 -53.5t-29.5 -43t-44 -29t-53 -10.5q-29 0 -53.5 10.5t-43 29t-29 43t-10.5 53.5zM142 493q0 -12 10 -12t10 12t-10 12t-10 -12zM469 136q0 28 10.5 53t29 44t43 29.5t53.5 10.5q28 0 53 -10.5t44 -29.5t29.5 -44t10.5 -53q0 -29 -10.5 -53.5t-29.5 -43t-44 -29
t-53 -10.5q-29 0 -53.5 10.5t-43 29t-29 43t-10.5 53.5zM595 136q0 -12 10 -12t10 12t-10 12t-10 -12zM771 136q0 28 10.5 53t29 44t43 29.5t53.5 10.5q28 0 53 -10.5t44 -29.5t29.5 -44t10.5 -53q0 -29 -10.5 -53.5t-29.5 -43t-44 -29t-53 -10.5q-29 0 -53.5 10.5t-43 29
t-29 43t-10.5 53.5zM897 136q0 -12 10 -12t10 12t-10 12t-10 -12z" />
    <glyph glyph-name="guilsinglleft" unicode="&#x2039;" horiz-adv-x="392" 
d="M336 159q14 -14 21 -31t7 -35t-7 -35.5t-21 -30.5q-14 -14 -31 -21t-35 -7t-35.5 7t-30.5 21l-150 147q-27 29 -27 66.5t27 66.5l150 148q28 29 66 29t67 -28q14 -14 21 -31.5t7 -36t-7 -36t-22 -30.5l-102 -80z" />
    <glyph glyph-name="guilsinglright" unicode="&#x203a;" horiz-adv-x="392" 
d="M138 242l-82 80q-28 29 -28.5 67.5t27.5 66.5q29 28 67 28t66 -29l150 -148q27 -29 27 -66.5t-27 -66.5l-150 -147q-14 -14 -31 -21t-35 -7t-35.5 7t-30.5 21q-14 13 -21 30.5t-7 35.5t7 35t21 31z" />
    <glyph glyph-name="fraction" unicode="&#x2044;" horiz-adv-x="369" 
d="M187 67q-12 -38 -46 -55.5t-72 -5.5q-18 6 -32.5 18t-22.5 27.5t-10 34.5t4 38l140 440q6 18 18 32.5t28 22.5t34.5 10t37.5 -4t33 -18t22.5 -28t10 -34.5t-4.5 -37.5z" />
    <glyph glyph-name="Euro" unicode="&#x20ac;" horiz-adv-x="764" 
d="M173 444q19 41 48 75t66.5 59t81.5 38.5t92 13.5q73 0 134 -32t105 -84q13 -14 20 -31t7 -35t-7 -35.5t-20 -30.5q-16 -16 -35 -22t-38.5 -3.5t-37 12t-30.5 24.5q-9 10 -18.5 22.5t-21 23.5t-25.5 18t-33 7q-21 0 -38.5 -5.5t-32.5 -14.5h52q26 0 43.5 -18t17.5 -43
t-17.5 -43t-43.5 -17l-118 3v-13v-9t1 -9l117 3q26 1 43.5 -17.5t17.5 -43.5t-17.5 -42.5t-43.5 -17.5h-39q25 -13 58 -13q20 0 35.5 8t28 20t23 25t20.5 24q14 16 33 23t38 7t36 -6t29 -18q13 -14 20 -31t7 -35t-7 -35.5t-20 -30.5q-44 -53 -106.5 -84t-136.5 -31
q-47 0 -90 13t-80 36t-66 56t-48 72h-50q-26 0 -43 17.5t-17 42.5t17 44.5t43 16.5l19 -2v19v10l-19 -2q-26 -3 -43 16t-17 44t17 43t43 18h46z" />
    <glyph glyph-name="trademark" unicode="&#x2122;" horiz-adv-x="977" 
d="M378 452q1 39 15.5 72.5t40 58.5t59 39.5t72.5 14.5q26 0 50 -7t44 -19q21 12 45 19t50 7q39 0 73 -15t59.5 -40.5t40.5 -59.5t15 -73v-55q0 -40 -27.5 -67t-66.5 -27t-65.5 26t-28.5 64q-2 -38 -29 -64t-65 -26q-39 0 -65.5 26t-28.5 64q-2 -38 -29 -64t-65 -26
q-40 0 -67 27t-27 67v58zM279 637q39 0 66.5 -27t27.5 -67q0 -35 -21.5 -60.5t-53.5 -32.5v-56q0 -40 -27.5 -67t-66.5 -27q-40 0 -67 27t-27 67v56q-33 7 -54.5 32.5t-21.5 60.5q0 40 27 67t67 27h151z" />
    <glyph glyph-name="glyph158" horiz-adv-x="524" 
d="M21 242q0 50 19 94t52 77t77 52t94 19t94 -19t77 -52t52 -77t19 -94t-19 -94t-52 -77t-77 -52t-94 -19t-94 19t-77 52t-52 77t-19 94zM209 242q0 -23 15.5 -40.5t38.5 -17.5t38.5 17.5t15.5 40.5t-15.5 40.5t-38.5 17.5t-38.5 -17.5t-15.5 -40.5zM307 687
q27 -20 35.5 -48.5t-9.5 -57.5q-19 -29 -51.5 -31.5t-61.5 12.5l-59 31q-30 18 -37.5 50.5t10.5 61.5t50.5 37t62.5 -11z" />
    <glyph glyph-name="igrave.001" 
d="M36 390q0 39 27 66.5t67 27.5q19 0 36.5 -7.5t30 -20t20 -30t7.5 -36.5v-296q0 -40 -27.5 -67t-66.5 -27q-40 0 -67 27t-27 67v296zM164 687q27 -20 35.5 -48.5t-9.5 -57.5q-19 -29 -51.5 -31.5t-61.5 12.5l-59 31q-30 18 -37.5 50.5t10.5 61.5t50.5 37t62.5 -11z" />
    </font>
</defs>
</svg>
